<?xml version="1.0" standalone="no"?>
<!DOCTYPE svg PUBLIC "-//W3C//DTD SVG 1.1//EN" "http://www.w3.org/Graphics/SVG/1.1/DTD/svg11.dtd" >
<svg xmlns="http://www.w3.org/2000/svg">
<metadata>Generated by IcoMoon</metadata>
<defs>
<font id="Game-Landing-Icon" horiz-adv-x="1024">
<font-face units-per-em="1024" ascent="960" descent="-64" />
<missing-glyph horiz-adv-x="1024" />
<glyph unicode="&#x20;" horiz-adv-x="512" d="" />
<glyph unicode="&#xe900;" glyph-name="home" d="M512.004 832c18.889 0 36.642-7.36 49.997-20.719l313.37-313.323c27.516-27.575 27.507-72.401-0.034-99.955-13.367-13.359-31.125-20.715-50.005-20.715h-11.58v-230.549c0-45.619-37.12-82.739-82.761-82.739h-122.577c-12.429 0-22.502 10.074-22.502 22.498v180.753c0 20.817-16.934 37.751-37.756 37.751h-72.299c-20.821 0-37.76-16.934-37.76-37.751v-180.753c0-12.425-10.078-22.498-22.5-22.498h-122.58c-45.637 0-82.759 37.12-82.76 82.739v230.549h-12.488c-0.733 0-1.46 0.034-2.18 0.107-17.749 0.759-34.351 8.043-46.921 20.621-27.512 27.507-27.559 72.256-0.134 99.836 0.105 0.107 0.211 0.218 0.316 0.324l313.152 313.111c13.359 13.359 31.117 20.713 50.001 20.713z" />
<glyph unicode="&#xe901;" glyph-name="apple" d="M671.053 652.25c52.173-0.006 107.401-28.628 146.709-77.917-128.866-71.093-107.968-256.249 22.251-305.832-17.903-39.932-26.505-57.762-49.583-93.124-32.209-49.344-77.577-110.852-133.875-111.292-49.967-0.529-62.844 32.755-130.667 32.371-67.823-0.333-81.937-32.934-132.001-32.457-56.255 0.482-99.251 55.991-131.459 105.335-89.995 137.899-99.493 299.806-43.958 385.914 39.503 61.137 101.789 96.873 160.291 96.875 59.57 0 97.074-32.875 146.418-32.875 47.846 0.005 77.001 33 145.873 33zM655.97 832c6.865-46.656-12.109-92.363-37.167-124.667-26.786-34.697-73.020-61.517-117.751-60.125-8.154 44.681 12.774 90.668 38.212 121.625 27.887 34.128 75.763 60.335 116.706 63.167z" />
<glyph unicode="&#xe902;" glyph-name="arrow-bottom" d="M493.555 90.82l-104.213 104.213c-5.090 5.090-7.634 11.755-7.634 18.423s2.545 13.333 7.634 18.423c10.179 10.18 26.669 10.18 36.848 0l59.753-59.75v614.611c0 14.391 11.652 26.058 26.057 26.058s26.057-11.668 26.057-26.059v-614.611l59.755 59.75c10.176 10.18 26.667 10.18 36.847 0s10.18-26.667 0-36.847l-104.213-104.213c-2.406-2.411-5.291-4.322-8.491-5.645-6.366-2.637-13.542-2.633-19.913 0-3.196 1.323-6.080 3.234-8.486 5.645z" />
<glyph unicode="&#xe903;" glyph-name="arrow-bottom-bold" d="M541.841 76.275l277.355 277.35c7.919 7.919 12.267 18.47 12.267 29.722 0 11.264-4.352 21.811-12.267 29.726l-25.186 25.182c-7.906 7.91-18.462 12.271-29.722 12.271-11.251 0-22.165-4.361-30.067-12.271l-162.159-161.801v514.055c0 23.177-18.146 41.49-41.331 41.49h-35.61c-23.181 0-43.157-18.313-43.157-41.49v-515.89l-163.063 163.631c-7.917 7.91-18.188 12.267-29.446 12.267-11.245 0-21.666-4.356-29.577-12.267l-25.107-25.182c-7.917-7.919-12.232-18.462-12.232-29.726 0-11.251 4.371-21.803 12.288-29.722l277.353-277.35c7.94-7.936 18.543-12.301 29.815-12.271 11.307-0.026 21.914 4.335 29.845 12.275z" />
<glyph unicode="&#xe904;" glyph-name="arrow-left" d="M154.822 429.555l104.211-104.213c5.090-5.090 11.757-7.633 18.424-7.633s13.334 2.543 18.424 7.633c10.179 10.18 10.179 26.671 0 36.847l-59.751 59.755h614.612c14.387 0 26.057 11.652 26.057 26.057s-11.669 26.057-26.057 26.057h-614.612l59.751 59.753c10.179 10.179 10.179 26.669 0 36.848s-26.669 10.179-36.848 0l-104.211-104.212c-2.413-2.406-4.323-5.291-5.648-8.491-2.634-6.366-2.632-13.542 0.002-19.913 1.323-3.196 3.233-6.080 5.646-8.486z" />
<glyph unicode="&#xe905;" glyph-name="arrow-left-bold" d="M140.276 477.841l277.352 277.357c7.917 7.917 18.469 12.263 29.72 12.263 11.264 0 21.811-4.352 29.726-12.263l25.182-25.187c7.915-7.905 12.271-18.463 12.271-29.721 0-11.252-4.356-22.166-12.271-30.071l-161.801-162.157h514.057c23.177 0 41.489-18.146 41.489-41.331v-35.605c0-23.185-18.313-43.157-41.489-43.157h-515.893l163.633-163.068c7.91-7.915 12.271-18.189 12.271-29.444 0-11.247-4.361-21.666-12.271-29.577l-25.182-25.109c-7.919-7.915-18.462-12.228-29.726-12.228-11.251 0-21.804 4.369-29.722 12.288l-277.352 277.35c-7.936 7.94-12.3 18.543-12.269 29.815-0.025 11.307 4.333 21.914 12.276 29.845z" />
<glyph unicode="&#xe906;" glyph-name="arrow-right" d="M869.18 429.555l-104.213-104.213c-5.090-5.090-11.755-7.633-18.423-7.633s-13.333 2.543-18.423 7.633c-10.18 10.18-10.18 26.671 0 36.847l59.75 59.755h-614.612c-14.391 0-26.058 11.652-26.058 26.057s11.668 26.057 26.058 26.057h614.612l-59.75 59.753c-10.18 10.179-10.18 26.669 0 36.848 10.176 10.179 26.667 10.179 36.847 0l104.213-104.212c2.411-2.406 4.322-5.291 5.645-8.491 2.637-6.366 2.633-13.542 0-19.913-1.323-3.196-3.234-6.080-5.645-8.486z" />
<glyph unicode="&#xe907;" glyph-name="arrow-right-bold" d="M883.725 477.841l-277.35 277.357c-7.919 7.917-18.47 12.263-29.722 12.263-11.264 0-21.811-4.352-29.726-12.263l-25.182-25.187c-7.91-7.905-12.271-18.463-12.271-29.721 0-11.252 4.361-22.166 12.271-30.071l161.801-162.157h-514.055c-23.177 0-41.49-18.146-41.49-41.331v-35.605c0-23.185 18.313-43.157 41.49-43.157h515.894l-163.635-163.068c-7.91-7.915-12.267-18.189-12.267-29.444 0-11.247 4.356-21.666 12.267-29.577l25.182-25.109c7.919-7.915 18.462-12.228 29.726-12.228 11.251 0 21.803 4.369 29.722 12.288l277.35 277.35c7.936 7.94 12.301 18.543 12.271 29.815 0.026 11.307-4.335 21.914-12.275 29.845z" />
<glyph unicode="&#xe908;" glyph-name="arrow-top" d="M530.445 805.178l104.213-104.211c5.090-5.089 7.633-11.757 7.633-18.424s-2.543-13.335-7.633-18.424c-10.18-10.179-26.671-10.179-36.847 0l-59.755 59.751v-614.609c0-14.391-11.652-26.061-26.057-26.061s-26.057 11.669-26.057 26.061v614.609l-59.753-59.751c-10.179-10.179-26.669-10.179-36.848 0s-10.179 26.669 0 36.848l104.213 104.211c2.406 2.413 5.291 4.323 8.486 5.648 6.37 2.634 13.547 2.633 19.913-0.001 3.2-1.324 6.084-3.234 8.491-5.647z" />
<glyph unicode="&#xe909;" glyph-name="arrow-top-bold" d="M482.159 819.725l-277.356-277.352c-7.917-7.917-12.263-18.469-12.263-29.72 0-11.264 4.352-21.811 12.263-29.726l25.188-25.182c7.904-7.91 18.463-12.271 29.721-12.271 11.251 0 22.166 4.361 30.070 12.271l162.161 161.802v-514.058c0-23.177 18.142-41.489 41.327-41.489h35.61c23.181 0 43.157 18.313 43.157 41.489v515.893l163.063-163.633c7.915-7.91 18.189-12.267 29.444-12.267 11.247 0 21.666 4.356 29.577 12.267l25.109 25.182c7.915 7.919 12.233 18.462 12.233 29.726 0 11.251-4.373 21.805-12.288 29.722l-277.355 277.352c-7.94 7.936-18.543 12.3-29.815 12.269-11.307 0.025-21.914-4.333-29.845-12.275z" />
<glyph unicode="&#xe90a;" glyph-name="cake" d="M672.235 273.98c22.865-22.869 53.060-35.435 85.35-35.435 25.485 0 48.87 8.030 68.42 21.47v-161.105c0-19.2-15.71-34.91-34.91-34.91h-558.544c-19.199 0-34.909 15.71-34.909 34.91v161.105c19.548-13.44 43.113-21.47 68.422-21.47 32.292 0 62.488 12.57 85.004 35.435l37.702 37.525 37.528-37.525c45.555-45.555 125.15-45.555 170.705 0l37.705 37.525 37.525-37.525zM546.735 517.82h174.545c57.775 0 104.73-46.955 105.079-104.73v-53.585c-0.004-37.7-30.724-68.42-68.425-68.42-18.325 0-35.435 7.159-48.35 20.075l-74.53 74.355-74.705-74.355c-25.835-25.835-70.865-25.835-96.7 0l-74.53 74.355-74.705-74.53c-12.917-12.919-30.022-20.075-48.349-20.075-37.702 0-68.422 30.72-68.422 68.42v53.76c0 57.775 46.953 104.725 104.727 104.73h174.545v69.817h69.82v-69.817zM571.695 728.319c6.285-10.473 9.95-22.865 9.95-35.955 0-38.575-31.245-69.818-69.82-69.818s-69.82 31.243-69.82 69.818c0 13.091 3.665 25.483 9.95 35.955l59.87 103.681 59.87-103.681z" />
<glyph unicode="&#xe90b;" glyph-name="calendar" d="M896 486.4v-307.2c0-30.554-12.147-59.844-33.749-81.451-21.606-21.602-50.897-33.749-81.451-33.749h-537.6c-30.553 0-59.846 12.147-81.45 33.749-21.604 21.606-33.75 50.897-33.75 81.451v307.2h768zM704 832c10.185 0 19.947-4.049 27.149-11.25s11.251-16.966 11.251-27.15v-76.8h38.4c30.554 0 59.844-12.146 81.451-33.75 21.602-21.604 33.749-50.897 33.749-81.45v-38.4h-768v38.4c0 30.553 12.146 59.846 33.75 81.45s50.897 33.75 81.45 33.75h38.4v76.8c0 10.184 4.049 19.949 11.25 27.15s16.966 11.25 27.15 11.25c10.185 0 19.949-4.049 27.15-11.25s11.25-16.966 11.25-27.15v-76.8h307.2v76.8c0 10.184 4.049 19.949 11.251 27.15s16.964 11.25 27.149 11.25z" />
<glyph unicode="&#xe90c;" glyph-name="caret-down" d="M287.999 608c-12.556 0-23.952-7.343-29.14-18.777s-3.21-24.846 5.058-34.295l223.999-256.001c6.080-6.942 14.857-10.927 24.085-10.927 9.225 0 18.001 3.985 24.081 10.927l224 256.001c8.269 9.449 10.244 22.86 5.056 34.295-5.184 11.434-16.585 18.777-29.137 18.777h-448.001z" />
<glyph unicode="&#xe90d;" glyph-name="caret-left" d="M672 224c0-12.557-7.343-23.953-18.778-29.141s-24.845-3.209-34.295 5.056l-255.999 224.004c-6.944 6.076-10.928 14.852-10.928 24.081 0 9.225 3.984 18.005 10.928 24.081l255.999 224c9.451 8.269 22.861 10.246 34.295 5.059s18.778-16.585 18.778-29.139v-448z" />
<glyph unicode="&#xe90e;" glyph-name="caret-right" d="M352 224c0-12.557 7.343-23.953 18.777-29.141s24.846-3.209 34.295 5.056l256.001 224.004c6.942 6.076 10.927 14.852 10.927 24.081 0 9.225-3.985 18.005-10.927 24.081l-256.001 224c-9.449 8.269-22.861 10.246-34.295 5.059s-18.777-16.585-18.777-29.139v-448z" />
<glyph unicode="&#xe90f;" glyph-name="caret-top" d="M736 288c12.557 0 23.953 7.343 29.141 18.778s3.213 24.845-5.056 34.295l-224 255.999c-6.080 6.944-14.857 10.928-24.085 10.928-9.225 0-18.001-3.984-24.081-10.928l-223.999-255.999c-8.269-9.451-10.246-22.861-5.059-34.295s16.586-18.778 29.139-18.778h448z" />
<glyph unicode="&#xe910;" glyph-name="cart" d="M401.358 241.084c47.927 0.166 87.44-37.218 89.535-84.706 2.159-48.875-36.036-90.236-85.315-92.378h-2.152c-47.319 0.811-85.789 38.093-87.7 84.996-1.991 48.883 36.348 90.112 85.632 92.087zM709.683 241.169c49.267-0.094 89.173-39.714 89.225-88.585v-0.085c-0.051-48.922-40.073-88.546-89.399-88.499-49.323 0.047-89.271 39.748-89.225 88.67 0.051 48.926 40.073 88.546 89.399 88.499zM232.47 789.333c38.639-0.012 71.369-28.25 76.735-66.203l8.612-57.149h543.785c2.18-0.003 4.348-0.212 6.485-0.623 18.679-3.585 30.895-21.511 27.277-40.039l-56.064-277.203c-9.050-43.75-47.898-75.145-92.928-75.085h-358.363c-46.773 0.149-86.516 33.958-93.789 79.787l-53.052 360.657c-0.525 4.314-4.233 7.549-8.612 7.518h-70.105c-19.026 0-34.45 15.299-34.45 34.17s15.424 34.169 34.45 34.169h70.019z" />
<glyph unicode="&#xe911;" glyph-name="checked" d="M879.505 686.095c-23.851 23.881-62.579 23.866-86.46 0l-389.126-389.143-172.95 172.949c-23.881 23.881-62.593 23.881-86.474 0s-23.881-62.592 0-86.473l216.178-216.179c11.933-11.934 27.581-17.916 43.229-17.916s31.311 5.965 43.244 17.916l432.358 432.372c23.881 23.865 23.881 62.593 0 86.473z" />
<glyph unicode="&#xe912;" glyph-name="checked-circle" d="M681.745 569.846c11.721-11.719 11.721-30.715 0-42.426l-201.259-201.267c-11.716-11.712-30.707-11.712-42.428 0l-95.805 95.812c-11.719 11.716-11.719 30.711 0 42.423 11.713 11.721 30.709 11.721 42.422 0l74.597-74.594 180.045 180.052c11.721 11.713 30.716 11.713 42.428 0zM896 448c0-212.254-171.772-384-384-384-212.256 0-384 171.772-384 384 0 212.256 171.773 384 384 384 212.254 0 384-171.773 384-384zM836.002 448c0 179.092-144.934 324-324.002 324-179.092 0-324-144.932-324-324 0-179.093 144.932-324.002 324-324.002 179.093 0 324.002 144.934 324.002 324.002z" />
<glyph unicode="&#xe913;" glyph-name="checked-circle-solid" d="M239.133 718.438c-148.983-150.603-148.174-394.32 2.429-543.304s394.32-148.173 543.303 2.428c148.983 150.605 148.173 394.321-2.428 543.305-150.605 148.983-394.321 148.174-543.305-2.429zM699.038 521.681l-208.9-211.328c-17.813-17.813-46.963-17.813-64.775 0l-32.387 32.388-68.015 67.204c-17.813 17.813-17.813 46.959 0 64.772s46.962 17.813 64.776 0l68.013-67.204 176.516 178.134c17.813 17.813 46.959 17.813 64.772 0 17.813-17.004 17.813-46.153 0-63.967z" />
<glyph unicode="&#xe914;" glyph-name="chevron-down" d="M210.042 650.044l302.060-302.059 302.059 302.059c9.020 8.911 21.201 13.892 33.882 13.853s24.828-5.092 33.796-14.059c8.964-8.966 14.020-21.115 14.059-33.795s-4.945-24.86-13.854-33.88l-336-336.002c-9.003-8.998-21.214-14.059-33.941-14.059-12.732 0-24.939 5.060-33.941 14.059l-336 336.002c-8.912 9.020-13.892 21.2-13.853 33.88s5.093 24.829 14.059 33.795c8.966 8.966 21.116 14.020 33.795 14.059s24.86-4.942 33.88-13.853z" />
<glyph unicode="&#xe915;" glyph-name="chevron-left" d="M714.146 145.941l-302.059 302.059 302.059 302.060c8.909 9.020 13.892 21.2 13.854 33.88s-5.094 24.829-14.059 33.795c-8.969 8.966-21.116 14.020-33.796 14.059s-24.862-4.942-33.882-13.853l-335.999-336c-9.001-9.003-14.058-21.21-14.058-33.941s5.057-24.939 14.058-33.941l335.999-336c9.020-8.909 21.201-13.892 33.882-13.854s24.828 5.094 33.796 14.059c8.964 8.969 14.020 21.116 14.059 33.796s-4.945 24.862-13.854 33.882z" />
<glyph unicode="&#xe916;" glyph-name="chevron-right" d="M310.059 145.941l302.058 302.059-302.058 302.060c-8.911 9.020-13.892 21.2-13.853 33.88s5.092 24.829 14.059 33.795c8.966 8.966 21.115 14.020 33.795 14.059s24.86-4.942 33.88-13.853l336.001-336c8.998-9.003 14.059-21.21 14.059-33.941s-5.060-24.939-14.059-33.941l-336.001-336c-9.020-8.909-21.2-13.892-33.88-13.854s-24.829 5.094-33.795 14.059c-8.966 8.969-14.020 21.116-14.059 33.796s4.942 24.862 13.853 33.882z" />
<glyph unicode="&#xe917;" glyph-name="chevron-top" d="M814.161 245.956l-302.059 302.060-302.060-302.060c-9.020-8.909-21.2-13.892-33.88-13.854s-24.829 5.094-33.795 14.059c-8.966 8.969-14.020 21.116-14.059 33.796s4.942 24.862 13.853 33.882l335.999 336c9.003 9.001 21.21 14.058 33.941 14.058s24.939-5.057 33.941-14.058l336-336c8.909-9.020 13.892-21.201 13.854-33.882s-5.094-24.828-14.059-33.796c-8.969-8.964-21.116-14.020-33.796-14.059s-24.862 4.945-33.882 13.854z" />
<glyph unicode="&#xe918;" glyph-name="class" d="M602.359 755.584c95.113-33.379 162.325-124.567 162.334-228.292v-229.248l36.919-44.753c3.102-3.763 2.748-9.306-0.794-12.663l-183.415-174.084c-2.692-2.56-6.677-3.26-10.082-1.792-3.413 1.468-5.628 4.83-5.628 8.542v303.373c0 3.319 1.792 6.383 4.668 8.043l79.458 45.918v73.916l-129.707-74.918v-105.788c-0.004-2.893-1.37-5.619-3.669-7.377l-38.332-29.124c-3.328-2.522-7.932-2.53-11.251 0l-38.251 29.124c-2.3 1.758-3.665 4.48-3.665 7.377v105.788l-129.75 74.918v-73.916l79.458-45.918c2.874-1.66 4.667-4.723 4.667-8.043v-303.373c0-3.712-2.217-7.078-5.625-8.542-1.18-0.508-2.431-0.751-3.667-0.751-2.336 0-4.655 0.87-6.417 2.543l-183.375 174.084c-3.537 3.354-3.892 8.9-0.791 12.663l36.875 44.753v229.248c0.008 103.716 67.215 194.903 162.333 228.292l16.332-129.958c2.914-23.18 22.763-40.667 46.127-40.667h62.874c23.356 0.010 43.17 17.492 46.084 40.667l16.29 129.958zM504.572 831.125c2.492 1.166 5.38 1.167 7.872 0l52.378-24.541c3.648-1.708 5.79-5.585 5.291-9.583l-20.915-166.75c-0.589-4.634-4.54-8.115-9.212-8.125h-62.874c-4.681 0-8.661 3.484-9.25 8.125l-20.958 166.75c-0.503 3.998 1.643 7.874 5.291 9.583l52.378 24.541z" />
<glyph unicode="&#xe919;" glyph-name="close" d="M271.504 746.667c-15.429-0.004-30.223-6.136-41.132-17.047s-17.036-25.707-17.036-41.135c0-15.428 6.128-30.224 17.036-41.135l220.687-220.687-220.687-220.685c-10.91-10.91-17.039-25.707-17.039-41.139 0-15.428 6.129-30.225 17.039-41.135 10.911-10.91 25.708-17.037 41.136-17.037s30.225 6.127 41.136 17.037l220.694 220.689 220.685-220.689c10.91-10.91 25.707-17.037 41.135-17.037s30.225 6.127 41.135 17.037c10.91 10.91 17.041 25.707 17.041 41.135 0 15.433-6.131 30.229-17.041 41.139l-220.685 220.685 220.685 220.687c10.91 10.911 17.037 25.707 17.037 41.135s-6.127 30.224-17.037 41.135c-10.906 10.911-25.702 17.043-41.131 17.047-7.642-0.001-15.206-1.507-22.263-4.432-7.061-2.925-13.474-7.212-18.876-12.615l-220.685-220.687-220.694 220.687c-5.402 5.403-11.816 9.69-18.874 12.615s-14.624 4.431-22.266 4.432z" />
<glyph unicode="&#xe91a;" glyph-name="close-circle" d="M598.251 576.105c11.635 11.605 30.473 11.635 42.108-0.031 11.575-11.637 11.575-30.475-0.030-42.080l-84.25-84.129 84.25-84.13c11.635-11.605 11.635-30.443 0.030-42.082-5.803-5.803-13.449-8.717-21.069-8.717s-15.236 2.884-21.039 8.687l-84.309 84.194-84.309-84.194c-5.804-5.773-13.421-8.687-21.040-8.687s-15.267 2.884-21.071 8.717c-11.605 11.639-11.606 30.477 0.029 42.082l84.253 84.13-84.253 84.129c-11.636 11.607-11.635 30.445-0.029 42.080 11.636 11.665 30.473 11.636 42.11 0.031l84.309-84.192 84.309 84.192zM240.418 719.664c149.781 149.781 393.571 149.781 543.352 0 149.777-149.809 149.777-393.542-0.004-543.323-74.901-74.906-173.291-112.341-271.671-112.341-98.385 0-196.771 37.436-271.676 112.341-72.554 72.555-112.521 169.037-112.521 271.65 0 102.609 39.967 199.090 112.521 271.673zM741.687 677.585c-126.596 126.568-332.593 126.598-459.191 0-61.304-61.334-95.081-142.875-95.082-229.594s33.777-168.265 95.082-229.568c126.598-126.596 332.594-126.596 459.191 0 126.571 126.566 126.571 332.564 0 459.162z" />
<glyph unicode="&#xe91b;" glyph-name="close-circle-solid" d="M512 832c-75.947 0-150.191-22.521-213.339-64.716s-112.367-102.167-141.431-172.334c-29.064-70.167-36.669-147.377-21.852-221.865s51.389-142.912 105.092-196.617c53.704-53.7 122.126-90.274 196.615-105.092 74.487-14.814 151.697-7.211 221.867 21.854 70.165 29.065 130.138 78.281 172.331 141.431 42.197 63.147 64.717 137.391 64.717 213.338-0.119 101.807-40.614 199.409-112.602 271.396-71.991 71.988-169.591 112.484-271.398 112.604zM660.083 349.244c3.337-3.221 5.995-7.074 7.825-11.332s2.79-8.841 2.833-13.474c0.038-4.638-0.845-9.233-2.598-13.525-1.758-4.288-4.348-8.188-7.625-11.465-3.281-3.277-7.177-5.871-11.469-7.625-4.288-1.754-8.883-2.637-13.521-2.598-4.634 0.043-9.216 1.003-13.474 2.833s-8.111 4.489-11.332 7.825l-98.722 98.756-98.723-98.756c-6.584-6.362-15.402-9.877-24.555-9.801-9.153 0.081-17.908 3.75-24.381 10.223s-10.144 15.228-10.223 24.384c-0.079 9.152 3.439 17.971 9.798 24.555l98.723 98.756-98.723 98.758c-3.334 3.22-5.994 7.072-7.823 11.331s-2.793 8.84-2.833 13.475c-0.041 4.635 0.843 9.232 2.598 13.522s4.347 8.188 7.625 11.466c3.278 3.278 7.176 5.87 11.466 7.625s8.887 2.639 13.522 2.598c4.635-0.041 9.216-1.004 13.475-2.833s8.111-4.489 11.331-7.823l98.723-98.758 98.722 98.758c3.221 3.334 7.074 5.993 11.332 7.823s8.841 2.793 13.474 2.833c4.638 0.040 9.233-0.843 13.521-2.598 4.292-1.755 8.188-4.347 11.469-7.625 3.277-3.278 5.867-7.175 7.625-11.466 1.754-4.29 2.637-8.887 2.598-13.522-0.043-4.635-1.003-9.216-2.833-13.475s-4.489-8.111-7.825-11.331l-98.722-98.758 98.722-98.756z" />
<glyph unicode="&#xe91c;" glyph-name="close-square" d="M752 832h-480c-79.547 0-144-64.453-144-144v-480c0-79.548 64.453-144 144-144h480c79.548 0 144 64.452 144 144v480c0 79.547-64.452 144-144 144zM682.731 318.208l-40.998-40.969c-7.501-7.535-19.789-7.535-27.294 0l-102.438 102.438-102.41-102.409c-7.532-7.535-19.791-7.535-27.323 0.055l-40.999 40.883c-7.473 7.561-7.473 19.763 0 27.354l102.44 102.409-102.411 102.41c-7.503 7.562-7.503 19.85 0 27.323l41 41c7.532 7.591 19.82 7.591 27.323 0l102.38-102.441 102.438 102.441c7.535 7.591 19.823 7.591 27.294 0l40.998-40.94c7.505-7.532 7.505-19.82 0.030-27.382l-102.438-102.41 102.438-102.409c7.445-7.59 7.445-19.793-0.030-27.354z" />
<glyph unicode="&#xe91d;" glyph-name="cogs" d="M533.333 566.095c64.725 0 117.282-52.921 117.282-118.095s-52.557-118.093-117.282-118.093c-64.725 0-117.283 52.919-117.283 118.093s52.557 118.094 117.283 118.095zM459.904 824.8c48.503 9.6 98.355 9.6 146.859 0 10.782-2.129 19.9-9.286 24.614-19.27 0.102-0.224 35.729-75.611 35.742-75.715 14.528-6.982 28.463-15.081 41.673-24.227l83.029 6.703c10.953 0.873 21.666-3.527 28.877-11.869 32.486-37.492 57.412-80.988 73.429-128.044 3.571-10.472 1.975-21.992-4.262-31.103l-47.253-69.048c1.246-16.128 1.246-32.324 0-48.452l47.253-69.047c6.238-9.114 7.834-20.634 4.262-31.104-16.017-47.057-40.943-90.551-73.429-128.043-7.211-8.346-17.924-12.745-28.877-11.87-0.188 0.013-82.714 6.677-82.995 6.703-13.244-9.148-27.183-17.246-41.673-24.226l-35.776-75.716c-4.715-9.984-13.833-17.139-24.614-19.273-48.503-9.596-98.355-9.596-146.859 0-10.782 2.133-19.9 9.289-24.614 19.273-0.098 0.213-35.725 75.605-35.742 75.716-14.526 6.98-28.463 15.078-41.671 24.226l-83.030-6.703c-10.955-0.875-21.669 3.524-28.88 11.87-32.484 37.491-57.411 80.986-73.427 128.043-3.57 10.47-1.976 21.99 4.265 31.104l47.252 69.047c-1.248 16.128-1.248 32.324 0 48.452l-47.252 69.048c-6.24 9.111-7.835 20.631-4.265 31.103 16.017 47.056 40.943 90.553 73.427 128.044 7.211 8.343 17.925 12.742 28.88 11.869 0.234-0.019 82.745-6.68 82.995-6.703 13.243 9.146 27.18 17.245 41.671 24.227l35.777 75.715c4.715 9.984 13.833 17.141 24.614 19.27zM533.333 635.912c-103.002 0-186.619-84.199-186.62-187.912 0-103.71 83.618-187.913 186.62-187.913 102.997 0 186.62 84.203 186.62 187.913 0 103.713-83.622 187.912-186.62 187.912z" />
<glyph unicode="&#xe91e;" glyph-name="coin" d="M673.668 537.89c118.886 0 215.612-96.721 215.612-215.611 0-118.886-96.725-215.612-215.612-215.612-55.906 0-106.91 21.393-145.263 56.418-18.453 16.858-33.971 36.873-45.7 59.179-11.179 21.257-18.91 44.591-22.447 69.269-1.438 10.044-2.202 20.309-2.202 30.746 0 13.884 1.331 27.46 3.857 40.619 5.461 28.548 16.572 55.113 32.119 78.485 32.32 48.585 83.797 83.366 143.565 93.475 11.733 1.984 23.782 3.032 36.070 3.032zM134.724 279.053c9.801-6.626 20.523-12.89 32.175-18.714 59.181-29.594 137.076-45.888 219.327-45.888 6.973 0 13.899 0.162 20.801 0.393 10.045-24.832 23.454-47.957 39.668-68.796-19.234-2.227-39.457-3.447-60.466-3.447-143.947 0-251.505 56.909-251.505 107.785v28.668zM134.721 422.771c9.801-6.622 20.526-12.885 32.18-18.709 59.183-29.594 137.076-45.888 219.327-45.888 0.735 0 1.464 0.026 2.199 0.026-1.476-11.767-2.244-23.757-2.244-35.921 0-12.169 0.771-24.166 2.244-35.942-0.735-0.004-1.462-0.013-2.199-0.013-143.947 0-251.505 56.905-251.507 107.785v28.663zM134.721 566.493c9.801-6.626 20.526-12.883 32.18-18.711 59.183-29.59 137.076-45.889 219.327-45.889 22.459 0 44.573 1.259 66.094 3.631-18.586-22.417-33.832-47.693-44.986-75.059-6.945-0.273-13.978-0.418-21.107-0.418-143.947 0-251.504 56.9-251.507 107.781v28.666zM386.228 789.333c143.943 0 251.506-56.908 251.506-107.785 0-50.882-107.558-107.787-251.506-107.787s-251.504 56.905-251.505 107.787c0 50.877 107.56 107.785 251.505 107.785z" />
<glyph unicode="&#xe91f;" glyph-name="customer-services" d="M265.135 565c-37.516-10.066-65.135-44.309-65.135-85v-96c0-48.602 39.399-88 88-88h80c13.255 0 24 10.748 24 24v224c0 13.255-10.745 24-24 24h-53.926c13.733 79.039 94.201 144 197.926 144 103.727 0 184.192-64.961 197.926-144h-53.926c-13.252 0-24-10.745-24-24v-224c0-13.252 10.748-24 24-24h53.214c-10.833-45.871-52.036-80-101.214-80h-36.651c-9.498 23.458-32.491 40-59.349 40-35.349 0-64-28.651-64-64s28.651-64 64-64c26.859 0 49.852 16.542 59.349 40h36.651c76.796 0 140.284 56.947 150.549 130.914 37.675 9.958 65.451 44.279 65.451 85.086v96c0 40.691-27.618 74.934-65.135 85-12.207 112.133-121.229 195-246.865 195-125.638 0-234.658-82.867-246.865-195z" />
<glyph unicode="&#xe920;" glyph-name="discord" d="M778.142 692.167c-48.947 22.46-101.44 39.008-156.322 48.486-0.998 0.183-1.997-0.275-2.513-1.188-6.75-12.007-14.229-27.671-19.465-39.983-59.029 8.838-117.76 8.838-175.577 0-5.238 12.585-12.987 27.975-19.769 39.983-0.515 0.884-1.513 1.341-2.512 1.188-54.852-9.447-107.343-25.995-156.324-48.486-0.425-0.183-0.787-0.487-1.029-0.883-99.564-148.748-126.84-293.839-113.46-437.131 0.060-0.7 0.454-1.37 0.999-1.796 65.69-48.243 129.323-77.53 191.772-96.943 0.999-0.303 2.058 0.060 2.694 0.883 14.772 20.177 27.94 41.446 39.231 63.817 0.666 1.31 0.030 2.863-1.332 3.383-20.888 7.923-40.776 17.583-59.909 28.553-1.513 0.883-1.635 3.046-0.241 4.083 4.026 3.017 8.053 6.157 11.898 9.327 0.696 0.58 1.665 0.7 2.482 0.337 125.689-57.387 261.762-57.387 385.964 0 0.819 0.397 1.788 0.273 2.513-0.307 3.844-3.17 7.872-6.336 11.93-9.353 1.391-1.037 1.297-3.204-0.213-4.087-19.132-11.183-39.019-20.629-59.938-28.523-1.361-0.516-1.967-2.103-1.301-3.413 11.533-22.336 24.704-43.61 39.202-63.782 0.606-0.853 1.694-1.22 2.692-0.913 62.754 19.409 126.387 48.695 192.077 96.939 0.576 0.427 0.939 1.067 0.998 1.766 16.013 165.662-26.82 309.565-113.549 437.132-0.209 0.425-0.576 0.729-0.998 0.912zM384.639 341.402c-37.84 0-69.021 34.739-69.021 77.406s30.574 77.406 69.021 77.406c38.747 0 69.624-35.046 69.018-77.406 0-42.667-30.575-77.406-69.018-77.406zM639.829 341.402c-37.837 0-69.018 34.739-69.018 77.406s30.575 77.406 69.018 77.406c38.75 0 69.628-35.046 69.022-77.406 0-42.667-30.272-77.406-69.022-77.406z" />
<glyph unicode="&#xe921;" glyph-name="discouunt" d="M665.6 832c61.086-0.067 119.65-24.362 162.842-67.556 43.196-43.194 67.49-101.759 67.558-162.844v-307.2c-0.068-61.086-24.363-119.65-67.558-162.842-43.191-43.196-101.756-67.49-162.842-67.558h-307.2c-61.085 0.068-119.65 24.363-162.844 67.558-43.194 43.191-67.489 101.756-67.556 162.842v307.2c0.067 61.085 24.362 119.65 67.556 162.844s101.759 67.489 162.844 67.556h307.2zM656.589 403.755c-14.033 5.811-29.474 7.334-44.373 4.369-14.895-2.965-28.582-10.278-39.322-21.018s-18.052-24.427-21.018-39.322c-2.965-14.899-1.442-30.34 4.369-44.373 5.815-14.037 15.659-26.027 28.288-34.466s27.477-12.945 42.667-12.945c20.361 0.021 39.881 8.124 54.281 22.519 14.396 14.4 22.498 33.92 22.519 54.281 0 15.189-4.506 30.037-12.945 42.667s-20.429 22.473-34.466 28.288zM665.527 639.75c-10.121 0.046-19.853-3.908-27.076-11l-307.2-307.2c-7.092-7.223-11.046-16.956-11-27.076 0.046-10.125 4.087-19.819 11.245-26.978 7.158-7.155 16.854-11.2 26.977-11.243 10.122-0.047 19.853 3.908 27.075 10.999l307.201 307.201c7.091 7.222 11.046 16.953 10.999 27.075-0.043 10.123-4.087 19.819-11.243 26.977-7.159 7.158-16.853 11.199-26.978 11.245zM396.8 640.001c-20.362-0.023-39.882-8.123-54.28-22.521s-22.498-33.918-22.521-54.28c0-15.189 4.506-30.037 12.945-42.667s20.432-22.473 34.465-28.288c14.033-5.811 29.477-7.334 44.374-4.369 14.896 2.965 28.584 10.278 39.323 21.018s18.052 24.427 21.018 39.323c2.965 14.897 1.442 30.341-4.369 44.374-5.815 14.033-15.659 26.027-28.288 34.465s-27.477 12.945-42.667 12.945z" />
<glyph unicode="&#xe922;" glyph-name="earth" d="M512 792c-68.036 0-134.545-20.175-191.116-57.975s-100.662-91.525-126.699-154.383c-26.036-62.856-32.849-132.023-19.575-198.753s46.036-128.026 94.146-176.132c48.109-48.111 109.404-80.875 176.134-94.148s135.898-6.46 198.754 19.575c62.857 26.039 116.582 70.127 154.381 126.699s57.975 123.081 57.975 191.117c-0.102 91.203-36.378 178.642-100.868 243.133s-151.927 100.766-243.132 100.867zM216 448c0.058 33.139 5.728 66.031 16.768 97.28 19.84-144.32 146.432-156.514 151.872-179.52 3-25.911 3.75-52.036 2.24-78.080 2.24-44.48 63.68-45.12 87.36-80.32 8.324-16.67 11.563-35.422 9.314-53.922-73.198 7.151-141.122 41.259-190.57 95.697s-76.887 125.321-76.984 198.865zM592.32 163.2c21.794 68.254 87.232 91.392 93.888 130.846 5.346 31.65-36.254 48-73.6 52.45-37.342 4.446-31.616 43.038-57.95 70.4-26.338 27.358-43.49 25.856-80.482 21.214-36.992-4.638-68.64-1.6-78.976 21.154-10.336 22.75 2.848 33.63-24.352 61.824-3.672 3.52-6.31 7.974-7.628 12.888-1.318 4.912-1.265 10.091 0.154 14.975s4.147 9.286 7.89 12.729c3.743 3.443 8.358 5.794 13.344 6.799 19.2 4.64 53.344-28.8 73.346-24.864 60.224 12.416-11.968 130.368 78.528 160 16.61 5.674 30.31 17.682 38.11 33.408 50.761-11.083 97.694-35.367 136.064-70.4 11.166-25.653 15.159-53.856 11.554-81.6-12.066-37.344-42.466-64.226-9.314-125.312 34.594-63.808 55.936-72.482 71.488-54.912 6.084 6.677 13.692 11.785 22.178 14.878-5.781-59.332-29.316-115.55-67.537-161.306-38.221-45.751-89.344-78.921-146.705-95.172z" />
<glyph unicode="&#xe923;" glyph-name="email" d="M896 213.875c0-38.711-31.292-70.707-70.707-70.707h-626.584c-38.712 0-70.708 31.292-70.708 70.707v343.791c1.667-1.248 3.379-2.461 5.125-3.625l314.708-209.833c19.102-12.732 41.293-19.46 64.166-19.46 22.878 0 45.065 6.729 64.166 19.46l314.709 209.833c1.745 1.164 3.456 2.376 5.124 3.625v-343.791zM825.335 735.583c38.963-0.005 70.665-31.698 70.665-70.667-0.004-22.662-11.251-43.662-30.084-56.208l-314.709-209.792c-11.908-7.94-25.553-11.917-39.206-11.917s-27.294 3.977-39.206 11.917l-314.71 209.792c-18.828 12.545-30.079 33.544-30.083 56.167 0 39.005 31.701 70.702 70.667 70.708h626.669z" />
<glyph unicode="&#xe924;" glyph-name="eye-off" d="M786.556 739.534c9.378 9.51 24.567 9.51 33.946 0 9.378-9.501 9.378-24.918 0-34.42l-583.057-591.314c-4.688-4.753-10.832-7.134-16.974-7.134s-12.285 2.381-16.974 7.134c-9.377 9.502-9.377 24.926 0 34.428l99.86 101.274c-16.463 10.291-32.975 21.619-49.366 34.108-53.684 41.344-93.797 84.954-112.934 107.277-17.402 20.42-17.401 51.14-0.055 71.497 53.763 62.618 197.401 208.072 370.997 208.072 29.257 0 59.354-4.217 89.463-12.538 24.892-6.953 50.202-16.968 75.482-29.544l109.611 111.161zM512 621.768c-158.194 0-296.196-146.41-334.721-191.282-1.828-2.146-1.828-5.491 0.063-7.71 17.872-20.851 55.433-61.687 105.584-100.318 18.398-14.016 36.975-26.564 55.374-37.521l59.179 60.019c-12.903 18.615-21.577 40.503-24.402 64.265-0.8 5.679-1.121 11.524-1.121 17.446 0 78.477 62.66 142.026 140.045 142.027 5.841 0 11.601-0.326 17.203-1.137 23.428-2.865 45.018-11.653 63.377-24.74l48.247 48.927c-17.532 7.891-34.961 14.431-52.058 19.208-25.929 7.164-51.78 10.816-76.77 10.816zM736.478 564.994c8.017 10.711 23.083 12.789 33.634 4.66 53.581-41.266 93.692-84.88 112.828-107.207 17.404-20.42 17.404-51.136 0.055-71.497-53.76-62.613-197.397-208.073-370.995-208.073-29.257 0-59.349 4.22-89.455 12.54-12.792 3.533-20.332 16.922-16.847 29.897 3.486 12.971 16.68 20.625 29.473 17.084 25.988-7.177 51.84-10.825 76.83-10.825 158.195 0 296.196 146.402 334.72 191.275 1.83 2.146 1.83 5.491-0.064 7.71-17.869 20.851-55.433 61.687-105.583 100.322-10.556 8.13-12.621 23.408-4.595 34.114zM650.914 444.113c0.802-5.679 1.122-11.524 1.122-17.446 0-78.473-62.66-142.007-140.036-142.007-5.841 0-11.601 0.316-17.203 1.126l156.117 158.327z" />
<glyph unicode="&#xe925;" glyph-name="eye-on" d="M512 676.9c-146.735 0-279.801-80.28-377.991-210.677-8.012-10.684-8.012-25.609 0-36.288 98.19-130.556 231.256-210.833 377.991-210.833s279.799 80.277 377.993 210.675c8.009 10.684 8.009 25.609 0 36.288-98.193 130.555-231.258 210.835-377.993 210.835zM522.526 286.814c-97.404-6.127-177.841 74.15-171.714 171.712 5.027 80.437 70.225 145.635 150.662 150.662 97.404 6.127 177.839-74.153 171.712-171.714-5.184-80.282-70.379-145.476-150.66-150.66zM517.658 361.28c-52.476-3.298-95.835 39.902-92.379 92.378 2.672 43.358 37.864 78.391 81.222 81.221 52.476 3.299 95.834-39.902 92.378-92.378-2.829-43.516-38.020-78.549-81.22-81.22z" />
<glyph unicode="&#xe926;" glyph-name="facebook" d="M512.004 830.401c-212.079 0-384.004-171.926-384.004-384.001 0-190.208 138.441-347.733 319.957-378.236v298.121h-92.631v107.281h92.631v79.107c0 91.785 56.060 141.803 137.95 141.803 39.223 0 72.926-2.923 82.714-4.21v-95.94l-56.798-0.027c-44.527 0-53.111-21.154-53.111-52.207v-68.47h106.244l-13.858-107.281h-92.386v-300.74c189.995 23.121 337.289 184.657 337.289 380.911 0 211.965-171.925 383.89-383.996 383.89z" />
<glyph unicode="&#xe927;" glyph-name="female" d="M555.358 287.612v-53.265h35.388c23.945 0 43.362-19.413 43.362-43.358s-19.418-43.362-43.362-43.362h-35.388v-40.265c0-23.945-19.418-43.362-43.362-43.362-23.94 0-43.358 19.418-43.358 43.362v40.265h-35.405c-23.935 0-43.358 19.422-43.358 43.362 0 23.936 19.424 43.358 43.358 43.358h35.405v53.265c-131.548 20.971-230.557 135.287-230.557 270.472 0 151.049 122.866 273.917 273.915 273.917s273.924-122.866 273.924-273.917c0-135.188-99.012-249.501-230.562-270.472zM324.793 558.083c0-103.206 83.998-187.195 187.203-187.195 103.211 0 187.204 83.985 187.204 187.195s-83.998 187.197-187.204 187.197c-103.203 0-187.203-83.989-187.203-187.197z" />
<glyph unicode="&#xe928;" glyph-name="geo" d="M524.207 832c171.567-0.010 310.835-139.306 310.835-310.874-0.009-89.335-44.574-181.286-100.544-258.5-78.153-107.849-175.915-186.5-175.915-186.5l-3.831-2.833c-19.78-13.265-46.118-12.318-64.96 2.833l-16.499 13.999c-31.155 27.17-100.804 91.614-159.418 172.501-55.966 77.214-100.536 169.165-100.542 258.5 0 171.573 139.3 310.874 310.874 310.874zM524.207 649.125c-70.635 0-127.999-57.362-127.999-127.999 0.010-70.63 57.368-128 127.999-128 70.626 0.009 127.991 57.374 128 128 0 70.63-57.37 127.989-128 127.999z" />
<glyph unicode="&#xe929;" glyph-name="google" d="M327.084 364.749c31.51-70.967 102.386-120.747 184.916-120.747 35.883 0 69.722 9.66 99.332 26.33l129.583-129.54c-63.91-47.979-143.019-76.791-228.915-76.791-131.769 0-248.18 66.974-317 168.666l132.084 132.083zM867.166 538c10.782-0.008 20.062-7.683 22.084-18.29 4.48-23.445 6.75-47.586 6.75-71.71 0-108.804-45.875-206.912-119.040-276.625l-127.211 127.168c18.295 16.704 33.903 36.57 45.21 59.456h-181.457c-12.437 0-22.502 10.065-22.502 22.502v134.997c0 12.437 10.065 22.502 22.502 22.502h353.664zM311.292 480.418c-1.724-10.62-3.292-21.321-3.292-32.418s1.568-21.798 3.292-32.418l-141.208-141.167c-26.71 52.169-42.083 111.061-42.083 173.585s15.375 121.416 42.083 173.583l141.208-141.165zM512 832c89.536 0 176.708-31.703 245.419-89.292 4.83-4.062 7.71-9.95 8-16.25 0.282-6.304-2.086-12.456-6.545-16.917l-96.038-96c-7.91-7.977-20.497-8.785-29.419-2.083-35.285 26.537-77.278 40.542-121.417 40.542-82.53 0-153.406-49.779-184.916-120.749l-132.084 132.082c68.82 101.691 185.231 168.666 317 168.666z" />
<glyph unicode="&#xe92a;" glyph-name="hot" d="M403.369 831.574c36.418 2.118 72.864-3.675 106.869-16.987s64.772-33.833 90.227-60.172c45.491-55.496 71.625-124.522 74.385-196.455 11.699 11.858 21.828 25.194 30.131 39.674 1.911 3.864 4.706 7.217 8.149 9.785s7.445 4.278 11.669 4.99c4.258 0.707 8.623 0.38 12.727-0.952 4.109-1.332 7.842-3.633 10.893-6.71 6.246-6.57 62.17-67.862 62.17-238.317 1.485-66.176-18.086-131.093-55.846-185.25s-91.729-94.711-154.010-115.725c-2.428-0.397-4.902-0.397-7.33 0-4.122 0.034-8.188 1.015-11.878 2.867s-6.916 4.531-9.429 7.825c-2.509 3.298-4.245 7.13-5.069 11.204-0.823 4.070-0.717 8.282 0.316 12.305 39.906 147.204 18.189 229.564-10.317 273.613 4.847-66.876-12.954-133.431-50.496-188.791-4.169-5.551-10.278-9.293-17.088-10.462s-13.803 0.32-19.558 4.169c-30.605 20.028-55.494 47.757-72.216 80.439-6.891-52.89 3.294-106.615 29.050-153.225 2.85-4.804 4.169-10.377 3.776-15.962-0.388-5.589-2.47-10.918-5.965-15.275-3.493-4.356-8.227-7.526-13.564-9.084s-11.022-1.425-16.283 0.375c-7.334 3.831-181.348 65.122-181.348 300.975 0.673 89.31 20.2 177.451 57.282 258.566 2.772 5.453 7.279 9.81 12.8 12.375s11.737 3.186 17.65 1.767c5.914-1.419 11.184-4.797 14.966-9.594s5.858-10.734 5.894-16.861c0-23.257 27.148-53.081 51.038-71.961 94.202 115.191 11.674 243.24 7.872 248.988-2.592 4.038-4.083 8.694-4.322 13.497s0.785 9.586 2.964 13.864c2.308 4.369 5.75 8.026 9.957 10.58s9.023 3.91 13.934 3.923z" />
<glyph unicode="&#xe92b;" glyph-name="instagram" d="M704 832h-384c-107.52 0-192-84.48-192-192v-384c0-107.52 84.48-192 192-192h384c107.52 0 192 84.48 192 192v384c0 107.52-84.48 192-192 192zM819.2 256c0-65.28-49.92-115.2-115.2-115.2h-384c-65.28 0-115.2 49.92-115.2 115.2v384c0 65.28 49.92 115.2 115.2 115.2h384c65.28 0 115.2-49.92 115.2-115.2v-384zM512 640c-107.52 0-192-84.48-192-192s84.48-192 192-192c107.52 0 192 84.48 192 192s-84.48 192-192 192zM512 332.8c-65.28 0-115.2 49.92-115.2 115.2s49.92 115.2 115.2 115.2c65.28 0 115.2-49.92 115.2-115.2s-49.92-115.2-115.2-115.2zM704 601.6c21.21 0 38.4 17.192 38.4 38.4s-17.19 38.4-38.4 38.4c-21.21 0-38.4-17.192-38.4-38.4s17.19-38.4 38.4-38.4z" />
<glyph unicode="&#xe92c;" glyph-name="item" d="M128 168.785c0.013 36.574 44.344 54.938 70.208 29.082l63.667-63.667c25.839-25.856 7.473-70.191-29.084-70.208h-37.292c-18.612 0-35.481 7.569-47.708 19.793-12.228 12.228-19.792 29.094-19.792 47.71v37.291zM357.333 229.7l-63.625-63.667-63.667 63.667 63.667 63.625 63.625-63.625zM261.875 420.617c26.319 26.308 69.143 26.313 95.458 0l127.292-127.292c26.308-26.317 26.308-69.141 0-95.458-8.785-8.785-23.049-8.785-31.834 0l-190.916 190.916c-8.785 8.785-8.785 23.049 0 31.834zM870.332 831.785c14.007 2.020 27.469-11.409 25.459-25.417l-31.834-222.75c-0.794-5.577-3.648-10.677-8-14.25l-318.793-265.001-68.454 68.501 206.831 206.833c8.785 8.793 8.789 23.041 0 31.833s-23.036 8.786-31.834 0l-206.831-206.833-68.502 68.501 264.999 318.748c3.575 4.352 8.674 7.249 14.251 8.041l222.707 31.792z" />
<glyph unicode="&#xe92d;" glyph-name="line" d="M445.845 441.933c1.165-1.135 2.082-2.492 2.705-3.994 0.623-1.498 0.934-3.106 0.917-4.732 0.009-1.613-0.307-3.213-0.922-4.706-0.61-1.493-1.515-2.85-2.654-3.994s-2.492-2.048-3.981-2.667c-1.493-0.619-3.089-0.939-4.706-0.939h-49.089c-3.26 0.013-6.383 1.31-8.689 3.618-2.305 2.304-3.605 5.427-3.617 8.687v92.727c-0.011 1.621 0.304 3.23 0.926 4.732 0.622 1.498 1.539 2.857 2.695 3.995 1.718 1.723 3.909 2.896 6.295 3.37s4.859 0.227 7.105-0.708c2.246-0.936 4.162-2.518 5.506-4.545 1.344-2.031 2.054-4.412 2.039-6.844v-80.422h36.827c1.609 0.013 3.2-0.299 4.685-0.913s2.829-1.519 3.955-2.667zM476.087 538.196h-5.367c-5.303 0-9.6-4.298-9.6-9.599v-98.052c0-5.303 4.297-9.6 9.6-9.6h5.367c5.303 0 9.6 4.297 9.6 9.6v98.052c0 5.301-4.297 9.599-9.6 9.599zM599.795 525.935v-92.203c0.004-3.319-1.284-6.507-3.588-8.892s-5.444-3.78-8.759-3.895c-3.106 0.051-6.080 1.263-8.333 3.405-0.439 0.35-16.934 21.815-30.942 39.885-10.47 13.483-19.546 25.263-19.546 25.263v-56.247c0.009-2.385-0.678-4.719-1.98-6.716-1.297-2.001-3.149-3.58-5.329-4.544-2.18-0.96-4.595-1.267-6.95-0.879-2.351 0.384-4.54 1.451-6.293 3.063-1.267 1.148-2.283 2.547-2.974 4.113-0.691 1.562-1.045 3.255-1.041 4.962v92.16c-0.043 3.243 1.161 6.374 3.362 8.751 2.202 2.379 5.227 3.823 8.461 4.035 1.83 0.030 3.644-0.346 5.312-1.1s3.149-1.869 4.331-3.264c0.525-0.61 25.877-33.6 40.149-52.365 5.67-7.33 9.6-12.48 9.6-12.48v56.73c0.021 3.243 1.318 6.349 3.614 8.644s5.402 3.594 8.644 3.616c3.217 0.001 6.302-1.261 8.597-3.514 2.291-2.253 3.61-5.317 3.665-8.529zM642.91 513.455v-21.82h36.783c3.255 0 6.374-1.293 8.674-3.588 2.295-2.3 3.588-5.419 3.588-8.674 0-3.251-1.293-6.37-3.588-8.67-2.3-2.3-5.419-3.588-8.674-3.588h-36.783v-21.82h36.783c1.677 0.098 3.354-0.145 4.932-0.717 1.574-0.572 3.021-1.459 4.241-2.611s2.193-2.539 2.859-4.079c0.666-1.54 1.007-3.2 1.007-4.877s-0.341-3.337-1.007-4.877c-0.666-1.54-1.638-2.931-2.859-4.079-1.22-1.152-2.667-2.039-4.241-2.611-1.579-0.572-3.255-0.815-4.932-0.717h-49.22c-3.255 0.013-6.374 1.314-8.674 3.618-2.295 2.308-3.588 5.431-3.588 8.687v92.902c0.013 3.247 1.31 6.362 3.605 8.657s5.41 3.593 8.657 3.604h49.092c1.673 0.1 3.349-0.144 4.928-0.716s3.021-1.461 4.241-2.611c1.22-1.151 2.193-2.539 2.859-4.079s1.007-3.2 1.007-4.877c0-1.677-0.341-3.337-1.007-4.877s-1.638-2.931-2.859-4.079c-1.22-1.152-2.662-2.039-4.241-2.611s-3.255-0.819-4.928-0.717l-36.655-0.175zM791.275 832h-558.547c-27.776 0-54.413-11.034-74.054-30.674s-30.674-46.278-30.674-74.054v-558.547c0-27.772 11.034-54.413 30.674-74.052s46.278-30.673 74.054-30.673h558.547c27.772 0 54.413 11.034 74.052 30.673s30.673 46.281 30.673 74.052v558.547c0 27.776-11.034 54.413-30.673 74.054s-46.281 30.674-74.052 30.674zM752 474.18c-0.341-4.873-0.969-9.728-1.877-14.528-3.034-18.389-9.25-36.109-18.368-52.365-4.365-7.765-25.353-37.265-31.77-45.035-35.477-42.718-94.908-92.028-194.223-139.985-2.099-1.011-4.425-1.446-6.746-1.259-2.317 0.183-4.544 0.986-6.451 2.321-1.907 1.331-3.426 3.149-4.395 5.265-0.973 2.116-1.361 4.45-1.131 6.767l5.018 45.073c0.38 3.447-0.623 6.908-2.79 9.617-2.172 2.705-5.325 4.446-8.772 4.83-33.041 3.302-65.225 12.48-95.040 27.098-68.073 33.643-113.455 93.73-113.455 162.193 0 105.427 107.433 190.736 240 190.736 66.59 0 126.805-21.818 170.18-56.422 40.627-32.509 66.633-76.625 69.427-125.585 0.465-6.229 0.597-12.48 0.393-18.722z" />
<glyph unicode="&#xe92e;" glyph-name="lock" d="M728 544h-24v96c0 105.888-86.11 192-192 192-105.888 0-192-86.112-192-192v-96h-24c-39.68 0-72-32.29-72-72v-336c0-39.71 32.32-72 72-72h432c39.68 0 72 32.29 72 72v336c0 39.71-32.32 72-72 72zM384 640c0 70.592 57.408 128 128 128s128-57.408 128-128v-96h-256v96zM544 296.896v-72.896c0-17.664-14.302-32-32-32s-32 14.336-32 32v72.896c-19.038 11.106-32 31.522-32 55.104 0 35.298 28.702 64 64 64s64-28.702 64-64c0-23.582-12.962-43.998-32-55.104z" />
<glyph unicode="&#xe92f;" glyph-name="male" d="M831.488 805.888h-211.968c-21.504 0-38.4-16.896-38.4-38.4s16.896-38.4 38.4-38.4h118.272l-141.312-141.312c-109.056 81.408-264.192 73.728-362.496-24.576-107.52-107.52-107.52-284.16 0-391.68s284.16-107.52 391.68 0c98.304 98.304 107.52 254.976 24.576 362.496l141.312 141.312v-119.808c0-21.504 16.896-38.4 38.4-38.4s38.4 16.896 38.4 38.4v211.968c1.536 21.504-15.36 38.4-36.864 38.4zM573.44 225.28c-78.336-78.336-205.824-78.336-284.16 0s-78.336 205.824 0 284.16c78.336 78.336 205.824 78.336 284.16 0s78.336-205.824 0-284.16z" />
<glyph unicode="&#xe930;" glyph-name="map" d="M620.42 197.777l-216.837-43.371v542.097l216.837 43.367v-542.094zM349.374 699.214l-183.228 46.62c-4 1.015-8.18 1.103-12.22 0.258s-7.833-2.603-11.090-5.137c-3.341-2.636-6.015-6.022-7.804-9.883s-2.644-8.090-2.496-12.343v-487.886c-0.18-6.191 1.766-12.258 5.514-17.19s9.072-8.431 15.086-9.916l196.239-48.247v543.724zM870.869 691.625l-196.237 48.246v-543.724l183.228-46.618c2.159-0.26 4.343-0.26 6.502 0 7.189 0 14.084 2.854 19.17 7.94 5.082 5.082 7.936 11.977 7.936 19.166v487.884c0.179 6.192-1.766 12.258-5.513 17.19-3.75 4.932-9.071 8.431-15.087 9.915z" />
<glyph unicode="&#xe931;" glyph-name="menu" d="M850.487 268.8c32.998 0 59.733-26.735 59.733-59.733s-26.735-59.733-59.733-59.733h-676.975c-32.998 0-59.733 26.735-59.733 59.733s26.736 59.733 59.733 59.733h676.975zM850.487 507.733c32.998 0 59.733-26.735 59.733-59.733s-26.735-59.733-59.733-59.733h-676.975c-32.998 0-59.733 26.735-59.733 59.733s26.736 59.733 59.733 59.733h676.975zM850.487 746.667c32.998 0 59.733-26.736 59.733-59.733s-26.735-59.733-59.733-59.733h-676.975c-32.998 0-59.733 26.736-59.733 59.733s26.736 59.733 59.733 59.733h676.975z" />
<glyph unicode="&#xe932;" glyph-name="minus" d="M843.831 500.126c6.844 0 13.636-1.344 19.959-3.959s12.079-6.455 16.917-11.29c9.775-9.779 15.292-23.053 15.292-36.877 0-13.828-5.513-27.098-15.292-36.877-9.775-9.771-23.049-15.245-36.877-15.249h-663.706c-13.816 0.009-27.061 5.483-36.833 15.249-9.777 9.779-15.29 23.049-15.292 36.877 0.001 13.828 5.514 27.098 15.292 36.877 9.772 9.766 23.017 15.241 36.833 15.249h663.706z" />
<glyph unicode="&#xe933;" glyph-name="monster" d="M705.865 333.175c-10.411-8.171-24.994-72.183-25.207-78.997l-1.331-16.252c-1.916-16.179-5.611-32.119-11.085-47.501-10.615-28.873-44.262-53.577-65.293-66.125s-47.497-47.595-53.709-54.165c-6.217-6.571-29.628-12.932-45.248 9.749-18.219-22.686-34.637-14.332-37.457-12.335-2.803 1.993-38.362 32.99-40.252 35.251-1.803 2.189-50.692 42.197-69.125 56.542-18.427 14.34-23.431 31.501-24.833 37.875-1.397 6.383-0.005 22.895-3 46.165-3 23.296-16.046 55.351-19.25 59.337-3.209 3.989-11.172 13.713-9.792 17.498 1.4 3.78 11.398 6.187 17.208 2.419 5.804-3.785 38.426-14.716 44.666-14.336 6.197 0.397 7.426-4.979 6.833-6.583-0.602-1.591-10.214-13.355-10.417-46.208-0.201-32.858 25.651-75.857 36.666-85.414-2.803 3.584-5.645 10.573-9.25 22.123-3.602 11.55-1.587 21.922 0.416 22.916 2.012 0.99 9.619 0.166 17.625-1.626 0.223-0.495 4.346-13.18 10-36.416-0.593 2.27-0.192 19.529-0.791 32.043 1.209-1.382 30.399-6.473 31.043-6.583l2.206-33.459c0 0 4.215 18.748 6.417 32.294 2.573-0.593 43.277-3.921 44.25-4.002l4.834-38.042c0 0 3.789 22.72 5.79 37.457 2.185-0.593 42.944 2.121 43.669 2.167-0.004-0.478-0.047-10.176-2.586-34.039 6.208 10.15 8.589 32.243 8.794 36.25 1.574 0 30.14 6.746 31.040 6.959-0.073-0.99-2.743-36.309-2.372-37.21 0.397-0.589 10.176 38.054 10.415 39.002 0.094 0.030 22.601 7.77 25.626 5.999 3.004-1.792 3.614-20.339-8.998-44.834 28.843 23.3 35.452 90.991 34.249 112.499-1.207 21.478-11.405 16.713-4.207 26.253 7.164 9.493 61.709 23.147 62.455 23.33zM498.364 831.802c229.423 7.517 232.772-201.058 232.794-202.583-62.451 10.094-101.559-25.76-109.5-46.583 64.171 22.649 95.642 38.39 118.293 16.375 16.354-11.325-3.785-47.788-11.337-65.417-7.548-17.621-20.109-35.242-7.539-56.627 12.582-21.389 32.73-60.412 27.708-79.292-5.035-18.871-108.25-65.425-152.294-70.455 26.428-18.876 34.001-54.144 34.001-64.209-21.389-15.1-27.29-16.751-27.29-16.751-0.090 0.572-4.343 26.965-18.044 37.751 11.149-31.799 8.503-43.682 8.418-44.041 0 0-28.553-8.375-32.751-8.375-2.095 15.927-6.259 35.209-10.458 40.666 2.001-13.632 1.856-27.494-0.418-41.084 0 0-24.341-5.897-41.54-2.957-1.276 14.972-3.652 29.837-7.125 44.459-0.111-0.717-6.707-43.213-6.293-44.877-20.966 1.677-41.51 3.78-44.873 5.457-0.836 22.225 2.505 42.342 2.082 41.084-9.22-16.358-13.001-39.834-13.001-39.834-0.572 0.098-26.888 4.638-30.207 7.125 0.834 18.876 2.525 36.51 5.041 41.545-12.392-21.892-15.41-36.885-15.5-37.333 0 0-11.735 1.263-20.125 17.621-3.34 18.462 16.768 55.761 26.833 59.959-25.587 10.487-122.905 41.523-137.167 56.627-14.26 15.095-14.67 20.971-7.541 38.165 7.131 17.199 34.366 69.227 35.625 72.585 1.239 3.392-35.635 85.572-33.958 94.374 1.679 8.8 7.547 16.773 13 18.458 5.457 1.687 33.981 12.983 106.958-16.375-33.556 25.167-49.917 44.908-106.542 40.709-0.068 1.917-6.396 196.315 222.748 203.833zM505.033 396.425c-7.62 0.098-40.247-33.967-45.291-44.041-5.035-10.065 16.358-22.665 24.542-16.375 8.179 6.293 17.626 17.626 17.626 17.626l15.706-16.375c8.183-8.789 33.993 6.942 27.085 15.753-6.921 8.806-30.861 43.273-39.667 43.413zM690.867 532.928c-16.986 12.58-33.344 5.678-44.668 3.165-11.328-2.519-35.861-20.778-70.46-42.167-34.487-21.316-62.729-17.651-62.916-17.626 10.697-7.556 29.568-32.081 38.374-45.291 8.811-13.21 25.173-5.649 43.418-2.5s44.070 8.154 52.25 16.333c6.14 6.14 9.429 19.375 14.417 35.959l5.709 17.54c8.802 24.533 5.001 33.335 5.001 33.335s10.697 1.246 18.876 1.25zM358.032 541.76c-13.012 3.080-42.439-8.424-43.375-8.794l13.833-3.166c0 0 11.946-42.155 14.458-49.707s18.895-38.396 28.333-41.54c9.449-3.14 30.839-4.386 50.959-10.044 20.123-5.658 27.688 0.004 30.832 5.666 3.162 5.679 18.249 25.19 34.586 42.79-18.244-6.916-61.020 17.583-69.21 23.253-8.18 5.662-47.203 38.395-60.417 41.54z" />
<glyph unicode="&#xe934;" glyph-name="monthly-pass" d="M881.075 661.33c8.384-0.177 15.1-7.145 14.921-15.614v-73.574c-0.175-8.468-7.151-15.088-15.625-14.912-21.623 0-39.194-17.558-39.198-39.262 0.004-21.7 17.574-39.258 39.198-39.258h0.704c8.384-0.179 15.1-7.147 14.921-15.526v-73.66c-0.175-8.384-7.151-15.091-15.625-14.912-21.623 0-39.198-17.562-39.198-39.262 0.004-21.7 17.574-39.253 39.198-39.253h0.704c8.384-0.175 15.095-7.147 14.921-15.526v-72.956c0-8.649-6.972-15.616-15.625-15.616h-736.744c-8.651 0-15.624 6.967-15.624 15.616v73.57c0.177 8.469 7.15 15.091 15.624 14.912 21.626 0 39.195 17.553 39.197 39.253 0 21.7-17.571 39.262-39.197 39.262h-0.71c-8.384 0.175-15.089 7.147-14.913 15.526v73.31c0.177 8.384 6.972 14.912 15.268 14.912h0.355c21.626 0 39.195 17.643 39.197 39.253 0 21.703-17.571 39.261-39.197 39.261h-0.71c-8.383 0.178-15.089 7.148-14.913 15.614v73.928c0.177 8.381 7.15 15.087 15.624 14.912h737.448zM523.785 551.424c-11.174 6.472-25.404 2.915-32.009-8.253l-26.667-59.276-67.192-10.662c-8.51-1.395-15.492-7.236-18.158-15.488-2.543-7.863-0.378-16.495 5.59-22.336l46.609-46.716-11.177-65.233c-1.017-8.375 2.285-16.759 8.89-21.965 7.36-4.442 16.512-4.437 23.748 0l58.428 30.848 56.516-31.351c3.302-1.651 6.985-2.667 10.667-2.795 4.698 0.128 9.143 1.399 13.082 3.81 6.605 5.205 9.907 13.581 8.892 21.833l-11.174 65.37 49.532 47.087c5.969 5.837 8.124 14.473 5.585 22.468-2.667 8.124-9.779 14.084-18.287 15.356l-65.792 9.775-28.954 59.276c-2.031 3.426-4.826 6.222-8.128 8.253z" />
<glyph unicode="&#xe935;" glyph-name="pass" d="M382.032 783.962c10.445 0 18.913-8.596 18.913-19.2v-9.562c0-53.016 42.34-95.994 94.564-96h75.648c52.228 0 94.566 42.981 94.566 96v9.562c0 10.6 8.469 19.194 18.91 19.2h26.854c78.336 0 141.845-64.471 141.845-144v-431.962c0-79.526-63.509-144-141.845-144h-356.31c-78.333 0.004-141.842 64.474-141.844 144v431.962c0 79.526 63.51 143.995 141.844 144h26.854zM465.549 324.736c-62.661-0.004-113.467-51.588-113.474-115.2v-19.273c0.004-21.201 16.942-38.396 37.825-38.4h286.827c20.89 0 37.824 17.195 37.828 38.4v19.273c-0.009 63.616-50.812 115.2-113.476 115.2h-135.531zM533.372 586.75c-58.624-0.006-106.155-48.262-106.163-107.774 0-59.52 47.535-107.806 106.163-107.814 58.633 0 106.159 48.29 106.159 107.814-0.009 59.515-47.535 107.774-106.159 107.774zM571.157 832c20.894 0 37.828-17.193 37.828-38.4v-38.4c0-21.207-16.934-38.4-37.828-38.4h-75.648c-20.885 0.006-37.828 17.196-37.828 38.4v38.4c0 21.204 16.943 38.394 37.828 38.4h75.648z" />
<glyph unicode="&#xe936;" glyph-name="pet" d="M484.122 516.416c64.030-0.004 122.863-32.213 157.419-86.123l83.29-129.877c13.82-21.564 20.177-46.49 18.419-72.043-1.762-25.545-11.49-49.335-28.126-68.791-16.649-19.452-38.626-32.755-63.582-38.455-8.794-2.005-17.681-2.999-26.5-2.999-16.23 0-32.32 3.366-47.501 10.039-58.85 25.882-126.289 26.125-185.292 0.708l-1.583-0.708c-23.445-10.3-49.039-12.749-74-7.040-24.957 5.705-46.941 19.008-63.583 38.455-16.635 19.477-26.373 43.29-28.125 68.834-1.749 25.536 4.644 50.453 18.458 72l83.25 129.877c34.552 53.909 93.427 86.123 157.456 86.123zM716.749 485.082c35.972 48.581 100.147 62.313 143.040 30.626 42.837-31.718 48.465-97.101 12.544-145.707-22.899-30.903-57.161-47.706-90.082-47.71-18.884 0-37.342 5.521-52.962 17.084-42.829 31.71-48.474 97.101-12.54 145.707zM187.082 635.167c24.729 9.531 52.071 7.316 76.958-6.208 23.693-12.883 42.419-34.678 52.708-61.375 10.281-26.712 11.024-55.438 2.083-80.876-9.398-26.735-28.227-46.733-53-56.247-10.107-3.895-20.571-5.751-31-5.751-40.863 0-81.289 28.39-98.625 73.335-21.697 56.476 1.117 117.992 50.875 137.123zM614.541 713.708c25.946 15.713 55.078 19.443 82.001 10.5 26.914-8.946 47.996-29.38 59.375-57.5 10.871-26.862 11.541-57.753 1.83-86.959-16.866-50.739-61.094-83.75-106.458-83.75-9.715 0-19.477 1.493-29.039 4.668l-9.877 3.917c-47.599 22.195-70.49 82.777-51.29 140.541 9.702 29.2 28.672 53.574 53.457 68.583zM427.413 789.333c62.195-0.006 112.789-57.664 112.794-128.542 0-70.865-50.594-128.538-112.794-128.542-62.195 0-112.79 57.673-112.79 128.542 0.006 70.881 50.598 128.542 112.79 128.542z" />
<glyph unicode="&#xe937;" glyph-name="play" d="M512 832c212.075 0 384-171.921 384-384 0-77.722-23.612-149.986-63.168-210.291l-1.873-2.876-0.461-0.623c-9.348-13.244-27.61-16.721-41.165-7.667-13.559 9.062-17.378 27.294-8.708 40.998l0.418 0.627 1.626 2.415c33.498 51.068 53.329 112.017 53.333 177.417-0.004 178.941-145.062 324-324.002 324-178.938-0.001-324-145.060-324-324 0.001-178.94 145.063-323.998 324-324.002 60.437 0.004 116.919 16.538 165.291 45.295l2.334 1.374 0.666 0.375c14.076 8.043 32.051 3.443 40.503-10.5 8.448-13.952 4.194-32.043-9.459-40.794l-0.627-0.414-2.748-1.626c-57.391-34.116-124.429-53.709-195.959-53.709-212.073 0-383.999 171.925-384 384 0 212.078 171.926 383.999 384 384zM384.5 534.625c0 45.598 46.263 75.398 86.877 58.75l8-3.917 149.538-86.666c39.458-22.861 41.95-77.769 7.42-104.627l-7.42-4.958-149.538-86.665c-42.266-24.469-94.877 6.212-94.877 54.831v173.251zM446.127 537.542c-0.58-0.337-0.969-0.804-1.212-1.208-0.192-0.327-0.414-0.826-0.414-1.708v-173.251c0-0.879 0.222-1.378 0.414-1.707 0.243-0.405 0.631-0.87 1.212-1.207s1.182-0.452 1.621-0.461c0.346-0.004 0.832 0.051 1.545 0.461l149.833 86.831c0.546 0.367 0.798 0.713 0.96 1.003 0.226 0.414 0.414 1.003 0.414 1.707s-0.188 1.293-0.414 1.707c-0.162 0.294-0.414 0.636-0.96 1.003l-0.252 0.166-149.833 86.791c-0.58 0.289-0.99 0.337-1.293 0.334-0.439-0.008-1.041-0.122-1.621-0.459z" />
<glyph unicode="&#xe938;" glyph-name="plus" d="M512 832c13.824 0 27.098-5.518 36.877-15.292 4.834-4.84 8.674-10.595 11.29-16.916 2.615-6.324 3.959-13.115 3.959-19.959v-279.707h279.706c6.844 0 13.636-1.344 19.959-3.959s12.079-6.455 16.917-11.29c9.775-9.779 15.292-23.053 15.292-36.877 0-13.828-5.513-27.098-15.292-36.877-9.775-9.771-23.049-15.245-36.877-15.249h-279.706v-279.748c-0.009-13.815-5.483-27.063-15.249-36.834-9.779-9.779-23.049-15.292-36.877-15.292-13.828 0.004-27.098 5.513-36.877 15.292-9.766 9.771-15.241 23.019-15.249 36.834v279.748h-279.749c-13.816 0.009-27.061 5.483-36.833 15.249-9.777 9.779-15.29 23.049-15.292 36.877 0.001 13.828 5.514 27.098 15.292 36.877 9.772 9.766 23.017 15.241 36.833 15.249h279.749v279.707c0.004 13.824 5.478 27.098 15.249 36.875 9.779 9.777 23.049 15.29 36.877 15.292z" />
<glyph unicode="&#xe939;" glyph-name="point" d="M851.375 502.251c0.589-7.292 1.161-145.139 1.749-208.794 1.771-25.954-11.793-50.735-34.206-63.125-91.426-52.493-182.869-104.994-274.295-158.080-5.303-3.533-11.78-5.897-17.079-8.252l-34.795 1.165-58.415 33.045c23.595 45.419 46.622 90.266 69.623 133.914l98.5 189.333c28.314 54.263 72.542 80.794 133.291 80.794h115.627zM802.415 676.292c10.022-5.305 20.032-11.803 28.877-18.875 5.897-4.129 8.853-11.22 7.083-17.708-1.327-7.964-15.586-9.293-24.875-9.458h-465.292c-47.183-0.003-78.431-38.909-65.458-81.375 8.257-27.13 33.607-44.837 61.917-44.252 27.718-0.589 56.033 0 83.75 0 40.111-0.589 58.995-31.851 40.708-67.831-43.058-83.17-86.107-165.756-129.166-248.333-10.615-20.642-18.874-22.409-38.333-11.209-28.314 15.927-56.062 33.045-84.375 47.791-21.815 11.793-44.805 26.534-46.583 51.294v336.248c0.003 12.973 4.738 25.934 13.583 35.959 21.248 21.831 215.895 129.783 308.499 183.458h38.916c90.249-51.907 180.506-103.801 270.75-155.708z" />
<glyph unicode="&#xe93a;" glyph-name="potion" d="M629.171 692.447c8.789 8.79 23.040 8.79 31.817 0l95.458-95.46c8.789-8.79 8.789-23.040 0-31.815-20.668-20.67-27.149-51.389-17.203-78.871 11.264-31.095 17.775-64.469 18.645-99.238 4.425-176.222-134.985-321.050-311.253-323.042-177.329-2.010-320.609 141.269-318.614 318.613 1.995 176.267 146.821 315.677 323.043 311.252 34.769-0.87 68.143-7.379 99.238-18.644 27.482-9.96 58.202-3.465 78.869 17.205zM252.986 457.591c-11.505 2.308-22.816-4.634-26.086-15.902-5.79-19.934-8.894-40.977-8.894-62.741 0.030-124.489 104.251-226.953 228.722-224.926 82.59 1.348 154.5 47.415 192.525 115.004 7.424 13.201 0.179 29.909-14.626 33.135-155.281 33.873-212.821 123.584-371.641 155.43zM413.007 603.992c-33.135 0-60-26.865-60-60s26.865-59.999 60-59.999c33.133 0 60 26.863 60 59.999s-26.867 60-60 60zM708.715 814.428c23.433 23.43 61.427 23.43 84.855 0l84.855-84.856c23.433-23.43 23.433-61.425 0-84.855-23.428-23.43-61.41-23.43-84.855 0l-84.855 84.855c-23.428 23.43-23.428 61.426 0 84.856z" />
<glyph unicode="&#xe93b;" glyph-name="promo" d="M477.116 804.68c28.855 36.393 83.473 36.453 112.418 0.026l31.804-40.004c5.696-7.188 15.1-10.265 23.842-7.874l48.828 13.356c44.527 12.117 88.597-20.507 90.953-67.209l2.598-51.363c0.465-9.222 6.259-17.322 14.746-20.628l47.223-18.4c42.88-16.665 59.883-69.361 34.756-108.699l-27.601-43.136c-4.958-7.753-4.958-17.754 0-25.489l27.588-43.115c25.139-39.309 8.175-92.036-34.743-108.749l-47.223-18.377c-8.486-3.311-14.281-11.409-14.746-20.646l-2.598-51.354c-2.359-46.827-46.596-79.3-90.918-67.217l-48.875 13.38c-8.742 2.368-18.099-0.687-23.829-7.898l-31.787-40c-29.018-36.429-83.55-36.335-112.435 0.017l-31.787 39.983c-5.743 7.211-15.113 10.283-23.844 7.898l-48.829-13.363c-44.502-12.139-88.611 20.506-90.964 67.2l-2.598 51.371c-0.465 9.225-6.243 17.318-14.731 20.629l-47.224 18.389c-42.956 16.695-59.866 69.513-34.74 108.736l27.583 43.115c4.942 7.735 4.943 17.754-0.016 25.506l-27.567 43.081c-25.138 39.311-8.19 92.031 34.74 108.75l47.224 18.385c8.488 3.305 14.266 11.399 14.731 20.619l2.598 51.372c2.358 46.762 46.561 79.364 90.964 67.201l48.829-13.348c8.744-2.407 18.131 0.684 23.827 7.874l31.804 39.981zM656.461 575.732c-9.626 9.79-25.225 9.79-34.85 0l-230.036-233.946c-9.627-9.792-9.627-25.655 0-35.443 9.628-9.792 25.224-9.792 34.852 0l230.038 233.945c9.626 9.792 9.626 25.654-0.004 35.444zM614.391 399.258c-27.183 0-49.297-22.485-49.297-50.129s22.114-50.133 49.297-50.133c27.179 0 49.293 22.485 49.293 50.133 0 27.639-22.114 50.129-49.293 50.129zM433.647 583.077c-27.182 0-49.293-22.488-49.294-50.132s22.11-50.133 49.294-50.133c27.179 0 49.293 22.49 49.293 50.133s-22.11 50.132-49.293 50.132z" />
<glyph unicode="&#xe93c;" glyph-name="s-coin" d="M554.432 448.943c6.626-8.286 18.142-10.812 27.631-6.067l48.853 24.427-17.361-86.801h-203.11l-17.36 86.801 48.852-24.427c9.489-4.745 21.005-2.219 27.631 6.067l42.432 53.039 42.432-53.039zM512 695.5c136.474 0 247.501-111.028 247.501-247.5 0-136.474-111.027-247.501-247.501-247.501-136.471 0-247.5 111.027-247.5 247.501 0 136.471 111.028 247.5 247.5 247.5zM529.57 552.055c-9.007 11.259-26.133 11.259-35.14 0l-48.636-60.795-73.732 36.864c-16.748 8.373-35.797-6.178-32.125-24.538l30-149.999c2.103-10.517 11.339-18.086 22.063-18.086h240c10.726 0 19.959 7.569 22.063 18.086l29.999 149.999c3.674 18.359-15.377 32.912-32.124 24.538l-73.732-36.864-48.636 60.795zM512 832c211.738 0 384-172.262 384-384s-172.262-384-384-384c-211.738 0-384 172.262-384 384s172.262 384 384 384zM512 740.5c-161.285 0-292.5-131.215-292.5-292.5s131.215-292.501 292.5-292.501c161.284 0 292.501 131.217 292.501 292.501s-131.217 292.5-292.501 292.5z" />
<glyph unicode="&#xe93d;" glyph-name="scroll-down" d="M716.143 449.57c4.489 8.815 2.513 19.507-4.919 26.603-7.253 6.852-17.591 8.358-26.398 3.874l-172.821-87.863-172.867 87.868c-3.37 1.715-6.964 2.556-10.516 2.556-5.751 0-11.395-2.197-15.829-6.434-7.443-7.023-9.438-17.732-4.922-26.603l183.258-360.354c4.267-8.29 12.062-13.218 20.881-13.218 8.815 0 16.572 4.928 20.813 13.175l183.322 360.397zM512.004 507.072c-86.272 0-156.462 70.189-156.462 156.465s70.189 156.463 156.462 156.463c86.276 0 156.467-70.19 156.467-156.463s-70.191-156.465-156.467-156.465z" />
<glyph unicode="&#xe93e;" glyph-name="search" d="M437.316 832c173.734 0 314.581-140.829 314.581-314.573 0-61.41-17.651-118.635-48.060-167.049l178.982-178.999c24.576-24.576 24.576-64.401 0.021-88.986-12.309-12.275-28.403-18.394-44.51-18.394-16.090 0-32.201 6.118-44.493 18.394l-176.849 176.866c-50.94-35.503-112.845-56.397-179.674-56.397-173.744 0-314.572 140.817-314.572 314.564 0 173.744 140.835 314.573 314.572 314.573zM437.316 730.053c-117.431 0-212.637-95.201-212.638-212.639 0-117.436 95.207-212.634 212.638-212.634 117.436 0 212.634 95.198 212.634 212.634s-95.198 212.638-212.634 212.639z" />
<glyph unicode="&#xe93f;" glyph-name="settings" d="M500.791 769.208c62.332 61.868 161.182 80.366 240.375 44.958 4.049-1.812 7.586-4.597 10.334-8.083 2.748-3.494 4.608-7.629 5.414-12 0.802-4.36 0.563-8.849-0.747-13.083-1.323-4.244-3.691-8.107-6.835-11.25l-104.832-104.875c-2.547-2.546-4.582-5.589-5.961-8.916-1.374-3.323-2.082-6.905-2.082-10.5 0-3.588 0.713-7.142 2.082-10.458 1.378-3.327 3.413-6.371 5.961-8.917l45.5-45.583c5.167-5.094 12.16-7.958 19.413-7.958s14.208 2.868 19.379 7.958l105.289 105.375c3.055 3.052 6.814 5.329 10.918 6.667 4.096 1.333 8.448 1.664 12.706 1 4.267-0.668 8.337-2.307 11.836-4.834 3.499-2.528 6.357-5.868 8.333-9.708 32.542-63.241 22.302-175.359-44.791-241.458-36.228-35.695-86.473-54.208-143.71-54.208-26.761 0.175-53.397 3.844-79.206 10.914-4.787 1.276-9.826 1.212-14.583-0.166s-9.054-4.032-12.416-7.667l-263.377-285.956c-9.984-11.11-22.147-20.070-35.708-26.334s-28.276-9.685-43.209-10.082c-14.921-0.393-29.76 2.261-43.625 7.791-13.868 5.53-26.484 13.82-37.041 24.375-10.56 10.564-18.889 23.206-24.417 37.082-5.522 13.871-8.153 28.745-7.75 43.669 0.406 14.925 3.859 29.611 10.125 43.166 6.267 13.551 15.223 25.69 26.333 35.665l285.335 260.582c3.682 3.413 6.349 7.791 7.706 12.625 1.357 4.838 1.331 9.961-0.038 14.793-25.468 90.676-9.664 172.838 43.29 225.417zM261.417 223.206c-10.24 4.907-21.767 6.498-32.958 4.587-11.188-1.916-21.517-7.266-29.542-15.292-8.019-8.030-13.341-18.355-15.25-29.542-1.906-11.183-0.32-22.686 4.584-32.917 4.906-10.231 12.878-18.692 22.792-24.209 9.923-5.517 21.338-7.812 32.625-6.583 12.413 1.357 24.004 6.882 32.833 15.71 8.832 8.836 14.399 20.454 15.75 32.875 1.223 11.281-1.107 22.669-6.625 32.585-5.52 9.916-13.973 17.886-24.208 22.788z" />
<glyph unicode="&#xe940;" glyph-name="shield" d="M294.392 285.649c10.378-25.122 23.543-48.418 39.415-70.31-59.476-55.13-123.927-105.459-192.124-149.858-7.499-5.231-17.263 4.535-12.034 12.036h-0.085c48.401 74.406 103.782 144.282 164.828 208.132zM729.476 285.649c61.133-63.851 116.514-133.726 164.826-208.132h-0.094c5.235-7.505-4.531-17.271-12.032-12.036-68.194 44.309-132.642 94.643-192.115 149.858 15.957 21.892 29.035 45.188 39.415 70.31zM503.253 161.515c-81.105 60.54-137.613 121.519-151.741 213.547-7.935 51.635 2.269 139.383 6.804 173.231 48.836 11.776 102.551 31.148 144.936 52.082v-438.86zM520.691 600.375c42.47-20.847 96.107-40.219 144.943-52.082 24.243-171.319 14.387-271.718-144.943-386.778v438.86zM507.358 673.387c2.786 1.742 6.451 1.742 9.237 0 54.071-33.932 144.597-63.59 197.449-71.615h0.085c3.661-0.611 6.626-3.493 7.236-7.156 0.96-5.932 25.203-145.759 12.386-229.065-19.102-124.211-100.471-202.982-216.806-283.145-2.965-2.095-6.886-2.095-9.852 0-234.853 154.658-240.789 294.31-204.423 512.21 0.611 3.75 3.578 6.631 7.239 7.156 52.849 8.025 143.377 37.683 197.449 71.615zM515.994 622.182c-2.615 1.221-5.585 1.22-8.205 0-44.301-23.465-105.438-45.887-159.334-58.361-3.486-0.873-6.103-3.751-6.626-7.326-18.401-169.313-38.805-273.902 167.009-420.449 2.79-1.22 5.751-0.435 8.192 1.045 79.71 57.66 155.755 125.961 172.587 235.26l-0.085-0.085c8.546 55.825-2.441 147.418-7.586 184.229-0.439 3.576-3.14 6.541-6.626 7.326-53.897 12.474-114.94 34.809-159.326 58.361zM340.782 734.883c25.901 23.988 62.445-12.128 38.026-38.035-10.029-10.467-27.997-10.467-38.026 0l-0.085-0.085c-2.267 2.355-4.1 5.061-5.408 7.939l-12.119-12.131 55.988-56.001c-32.529-10.206-57.21-15.869-84.245-19.533-2.005-0.262-3.836-1.398-5.144-2.88l-22.501 22.506-12.119-12.131c37.408-19.453 1.567-71.436-30.089-43.436-10.464 10.467-10.464 27.559 0 38.027l115.722 115.759zM250.788 606.823c-8.808 8.723-22.151-4.53-13.431-13.34 8.807-8.722 22.145 4.529 13.431 13.34zM359.799 725.376c-17.79-1.919-7.329-27.305 6.711-16.143 5.93 5.582 1.485 16.402-6.711 16.143zM645.146 696.847c-24.418 25.994 12.211 62.023 38.11 38.035l115.639-115.665c24.503-25.733-12.39-62.46-38.029-38.035-13.338 12.387-8.887 36.631 7.94 43.436l-12.122 12.13-22.498-22.506c-1.31 1.482-3.055 2.53-5.146 2.879-27.034 3.664-51.631 9.336-84.245 19.542l55.987 56.001-12.117 12.122c-6.98-16.835-31.049-21.198-43.52-7.939zM786.594 593.39c8.636 8.723-4.621 22.071-13.431 13.349-8.713-8.722 4.625-22.065 13.431-13.349zM670.874 709.148c8.717 8.81-4.54 22.156-13.346 13.434-8.631-9.072 4.365-21.895 13.346-13.434zM293.166 704.787l-38.018-38.036-67.936 67.953c18.051 4.536 33.483 19.892 38.018 38.035l67.936-67.952zM798.63 772.739c4.535-18.144 19.887-33.499 38.025-38.035l-67.934-67.953-38.029 38.036 67.938 67.952zM141.428 754.679c-40.813 43.44 20.401 104.675 63.831 63.855l-0.085-0.085c40.9-43.352-20.316-104.676-63.746-63.77zM818.778 754.765c-40.9 43.353 20.318 104.678 63.748 63.77 40.9-43.352-20.318-104.675-63.748-63.77z" />
<glyph unicode="&#xe941;" glyph-name="skill" d="M307.167 742.417c7.098 0.018 12.854-5.734 12.833-12.833v-140.792c-0.011-11.375-13.76-17.099-21.833-9.083l-40.5 40.417c-33.302-49.164-52.833-108.27-52.833-172.125 0-169.813 137.353-307.166 307.167-307.166 44.595 0 86.878 9.485 125.082 26.543 6.242 2.765 13.559 0.141 16.627-5.961l22.959-45.833c3.255-6.485 0.478-14.362-6.127-17.374-48.337-21.939-102.054-34.21-158.541-34.21-211.925 0-384 172.075-384 384 0 85.013 27.847 163.563 74.667 227.209l-45.375 45.375c-8.020 8.070-2.33 21.815 9.042 21.833h140.833zM512 832c211.925 0 384-172.075 384-384 0-85.001-27.981-163.486-74.79-227.123l45.372-45.376c8.196-8.064 2.449-21.999-9.041-21.918h-140.791c-7.066 0.030-12.77 5.769-12.749 12.834v140.791c-0.017 6.511 4.864 11.998 11.332 12.749 3.874 0.435 7.744-0.905 10.5-3.665l40.333-40.375c33.34 49.161 53.001 108.203 53.001 172.083 0 169.813-137.353 307.167-307.166 307.167-44.599 0-86.877-9.4-125.083-26.458-6.267-2.831-13.678-0.194-16.75 5.958l-22.875 45.833c-3.257 6.493-0.449 14.413 6.167 17.417 48.335 21.935 102.060 34.083 158.542 34.083zM536.96 665.625c7.71 0.393 13.982-6.096 13.372-13.792l-11.789-152.625h101.372c10.116 0.047 16.286-11.081 10.876-19.627l-153.626-243.247c-7.181-11.123-24.482-5.333-23.539 7.872l11.708 152.585h-101.375c-10.059 0.051-16.132 11.17-10.75 19.665l153.499 243.21c2.236 3.53 6.076 5.765 10.253 5.958z" />
<glyph unicode="&#xe942;" glyph-name="star" d="M906.415 512.457l-176.61-172.16 41.707-243.153c1.818-10.633-2.551-21.376-11.281-27.729-4.937-3.601-10.803-5.414-16.674-5.414-4.506 0-9.041 1.079-13.184 3.26l-218.372 114.803-218.345-114.773c-9.527-5.047-21.123-4.224-29.856 2.155-8.733 6.349-13.099 17.097-11.284 27.729l41.707 243.153-176.638 172.13c-7.712 7.543-10.519 18.825-7.174 29.062 3.346 10.235 12.22 17.749 22.909 19.308l244.089 35.441 109.157 221.209c9.557 19.365 41.31 19.365 50.867 0l109.158-221.209 244.087-35.441c10.688-1.559 19.563-9.044 22.912-19.308 3.345-10.263 0.538-21.492-7.177-29.062z" />
<glyph unicode="&#xe943;" glyph-name="tiktok" d="M848.482 639.415c-43.831 0-84.271 14.52-116.749 39.015-37.244 28.080-64.004 69.27-73.455 116.745-2.338 11.73-3.597 23.835-3.716 36.24h-125.205v-342.118l-0.154-187.396c0-50.099-32.623-92.582-77.85-107.52-13.124-4.335-27.299-6.391-42.059-5.581-18.84 1.037-36.495 6.72-51.84 15.902-32.655 19.529-54.795 54.959-55.395 95.488-0.945 63.347 50.265 114.991 113.565 114.991 12.497 0 24.495-2.039 35.729-5.747v127.126c-11.849 1.755-23.91 2.67-36.104 2.67-69.285 0-134.085-28.8-180.405-80.687-35.010-39.206-56.010-89.233-59.25-141.687-4.245-68.911 20.97-134.417 69.87-182.746 7.185-7.095 14.73-13.679 22.62-19.755 41.925-32.265 93.18-49.754 147.165-49.754 12.193 0 24.255 0.9 36.104 2.654 50.432 7.471 96.96 30.554 133.683 66.854 45.12 44.595 70.050 103.799 70.319 166.814l-0.644 279.841c21.525-16.605 45.060-30.345 70.319-41.010 39.283-16.576 80.939-24.973 123.81-24.96v124.65c0.030-0.030-0.329-0.030-0.358-0.030z" />
<glyph unicode="&#xe944;" glyph-name="trash" d="M804.57 640l-32.303-508.501c-2.411-37.939-34.372-67.494-72.99-67.499h-374.553c-38.616 0.004-70.576 29.559-72.99 67.499l-32.305 508.501h585.141zM599.006 832c13.884 0.011 26.577-7.719 32.764-19.95l14.327-28.050h182.857c13.461 0 24.38-10.746 24.38-24v-48c0-13.254-10.918-24-24.38-24h-633.906c-13.465 0-24.381 10.746-24.381 24v48c0 13.254 10.917 24 24.381 24h182.859l14.324 28.050c6.086 12.252 18.752 20.002 32.608 19.95h174.168z" />
<glyph unicode="&#xe945;" glyph-name="treasure" d="M274.234 64h-25.853c-42.924 0-77.714 35.567-77.714 79.45v185.378h103.308l0.259-264.828zM429.713 328.828c0-43.883 34.79-79.45 77.717-79.45h51.806c42.927 0 77.717 35.567 77.717 79.45h103.927l-0.256-264.828h-414.582l-0.259 264.828h103.929zM896 143.45c0-43.883-34.79-79.45-77.713-79.45h-25.852l0.256 264.828h103.309v-185.378zM559.236 408.277c14.31 0 25.907-11.857 25.907-26.483v-52.966c0-14.626-11.597-26.483-25.907-26.483h-51.806c-14.31 0-25.907 11.857-25.907 26.483v52.966c0 14.626 11.597 26.483 25.907 26.483h51.806zM285.452 587.988c-7.59-23.782-11.709-48.861-11.657-74.601l0.13-131.593h-103.257v52.966c0 73.357 48.676 134.955 114.785 153.228zM723.294 593.655c11.554-24.761 17.847-51.959 17.796-80.217l-0.128-131.644h-103.983c0 43.883-34.79 79.445-77.717 79.445h-51.806c-42.927 0-77.717-35.563-77.717-79.445h-103.98l-0.129 131.644c-0.052 28.258 6.243 55.456 17.797 80.217h379.868zM781.218 587.988c66.082-18.3 114.782-79.871 114.782-153.228v-52.966h-103.258l0.132 131.567c0.051 25.74-4.066 50.846-11.657 74.627zM720.132 753.664c8.213 11.997 24.427 14.884 36.087 6.516 11.733-8.395 14.558-24.894 6.37-36.891l-44.582-65.095c-5.022-7.362-13.082-11.282-21.239-11.282l-0.030-0.026c-5.129 0-10.308 1.562-14.814 4.792-11.733 8.395-14.558 24.894-6.374 36.891l44.582 65.095zM310.423 760.205c11.683 8.368 27.899 5.482 36.085-6.514l44.581-65.095c8.186-11.997 5.363-28.495-6.372-36.89-4.507-3.231-9.689-4.794-14.818-4.794-8.16 0-16.217 3.92-21.242 11.282l-0.025 0.026-44.582 65.095c-8.186 11.997-5.361 28.495 6.374 36.89zM533.333 832c14.327 0 25.903-11.864 25.903-26.483v-79.448c0-14.618-11.575-26.483-25.903-26.483-14.323 0-25.903 11.864-25.903 26.483v79.448c0 14.618 11.58 26.483 25.903 26.483z" />
<glyph unicode="&#xe946;" glyph-name="tumb-up" d="M506.108 789.333c73.698 0 131.375-62.918 118.558-135.274-3.204-28.313-9.613-53.481-22.43-75.503h182.647c76.902 0 121.762-59.772 108.945-122.693l-41.655-261.111c-6.409-50.334-51.268-88.085-105.745-88.085h-281.975c-22.43 0-44.861 9.438-64.087 22.020l-25.635 18.876v393.242c54.471 31.459 86.518 88.087 86.518 147.86v75.502c0 12.584 12.817 25.167 25.634 25.167h19.226zM259.376 543.952c25.635 0 48.064-22.024 48.064-47.188v-320.887c0-25.165-22.43-47.189-48.064-47.189h-83.312c-25.634 0-48.064 22.025-48.064 47.189v320.887c0 25.165 22.43 47.188 48.064 47.188h83.312z" />
<glyph unicode="&#xe947;" glyph-name="swap" d="M436.335 832c10.368 0 18.79-8.424 18.79-18.792v-749.208h-113.792v440.875h-106.458c-11.895 0.004-21.531 9.647-21.542 21.542 0 4.48 1.397 8.886 4 12.541l203.708 285.167c3.526 4.934 9.222 7.874 15.293 7.875zM711.125 832v-440.875h106.458c11.887-0.013 21.534-9.651 21.542-21.542 0-4.48-1.438-8.887-4.041-12.54l-203.708-285.167c-3.524-4.928-9.186-7.872-15.253-7.876-10.368 0-18.79 8.422-18.79 18.79v749.21h113.792z" />
<glyph unicode="&#xe948;" glyph-name="user" d="M662.835 461.043c19.955-0.004 38.622-3.383 55.458-10.044 16.896-6.699 31.522-15.915 43.456-27.332 11.409-10.914 21.555-24.192 30.208-39.415 8.341-14.677 15.121-29.995 20.083-45.5 4.804-15.002 8.802-31.433 11.917-48.794 3.085-17.229 5.214-33.54 6.251-48.499 1.024-14.626 1.536-29.901 1.54-45.376 0-40.107-12.736-72.58-37.875-96.499-24.819-23.62-57.655-35.58-97.583-35.584h-369.832c-39.926 0.004-72.768 11.972-97.583 35.584-25.131 23.936-37.875 56.41-37.875 96.499 0 15.398 0.523 30.643 1.542 45.333 1.036 14.993 3.122 31.334 6.208 48.542 3.117 17.365 7.16 33.788 11.959 48.794 4.967 15.514 11.707 30.822 20.041 45.5 8.644 15.219 18.807 28.497 30.208 39.415 11.943 11.426 26.58 20.608 43.459 27.29 16.829 6.669 35.495 10.082 55.458 10.086 7.84 0 15.459-3.217 30.083-12.753 9.145-5.956 19.682-12.762 31.333-20.207 10.047-6.409 23.683-12.442 40.498-17.873 16.439-5.312 33.131-8 49.587-8 16.448 0 33.122 2.688 49.54 8 16.832 5.436 30.481 11.465 40.542 17.873 11.759 7.514 22.285 14.336 31.292 20.207 14.639 9.532 22.242 12.753 30.084 12.753zM506.543 832c50.812-0.003 94.831-18.217 130.79-54.167 35.959-35.968 54.165-79.985 54.165-130.792 0-50.826-18.21-94.834-54.165-130.792-35.955-35.959-79.974-54.204-130.79-54.208-50.812 0-94.828 18.257-130.793 54.208-35.962 35.959-54.208 79.964-54.208 130.792 0.003 50.814 18.252 94.835 54.208 130.792 35.956 35.949 79.968 54.167 130.793 54.167z" />
<glyph unicode="&#xe949;" glyph-name="warning" d="M880.649 272.427l-269.065 466.037c-43.947 76.988-155.081 76.988-198.872 0l-269.221-466.037c-43.948-76.988 10.75-172.629 99.436-172.629h537.335c88.687 0 144.333 96.589 100.386 172.629zM511.991 203.183c-23.398 0-42.842 19.447-42.842 42.842 0 23.398 19.443 42.842 42.842 42.842 23.394 0 42.842-19.443 41.89-43.947 1.109-22.293-19.443-41.737-41.89-41.737zM551.036 480.149c-1.894-33.195-3.951-66.236-5.85-99.435-0.947-10.752-0.947-20.553-0.947-31.142-0.947-17.549-14.703-31.142-32.247-31.142-17.549 0-31.142 12.646-32.252 30.195-2.846 51.691-5.85 102.438-8.695 154.133-0.947 13.594-1.894 27.349-3.004 40.943 0 22.448 12.651 40.944 33.199 46.793 20.553 4.901 40.947-4.901 49.796-24.345 3.004-6.798 3.955-13.595 3.955-21.5-0.951-21.659-3.004-43.159-3.955-64.5z" />
<glyph unicode="&#xe94a;" glyph-name="youtube" d="M856.789 627.96c-8.299 30.845-32.614 55.16-63.458 63.466-56.341 15.416-281.715 15.416-281.715 15.416s-225.364 0-281.707-14.832c-30.248-8.297-55.16-33.21-63.457-64.050-14.827-56.338-14.827-173.176-14.827-173.176s0-117.427 14.827-173.175c8.306-30.839 32.616-55.155 63.462-63.458 56.931-15.424 281.711-15.424 281.711-15.424s225.365 0 281.707 14.835c30.848 8.299 55.159 32.614 63.467 63.454 14.822 56.341 14.822 173.175 14.822 173.175s0.593 117.431-14.831 173.769zM439.863 346.846v215.878l187.409-107.939-187.409-107.938z" />
<glyph unicode="&#xe94b;" glyph-name="account-circle" d="M347.619 795.037c78.822 37.334 168.007 46.727 252.876 26.625 84.873-20.105 160.384-68.518 214.084-137.25 53.696-68.731 82.398-153.703 81.374-240.918-0.943-80.115-26.995-157.692-74.082-222.080l0.375-0.461-13.295-16.375c-35.989-43.9-81.28-79.283-132.582-103.582-44.89-21.265-93.414-33.6-142.874-36.378l-21.252-0.58-16.333 0.333c-1.126 0.047-2.249 0.149-3.375 0.209-1.293 0.064-2.581 0.166-3.874 0.247-78.806 4.796-154.446 33.719-216.417 83.251-25.956 20.749-48.906 44.638-68.458 70.959l-1.542 1.916 0.083 0.124c-30.988 42.287-53.283 90.743-64.958 142.583-19.156 85.082-8.745 174.144 29.458 252.543 38.21 78.408 101.965 141.495 180.791 178.833zM512.243 780.787c-65.818 0-130.148-19.517-184.874-56.083s-97.395-88.527-122.583-149.333c-25.188-60.811-31.758-127.738-18.917-192.292 8.741-43.934 26.222-85.423 51.167-122.125 31.956 32.862 69.527 59.883 111.125 79.543 51.3 24.243 107.344 36.791 164.082 36.791 56.742 0 112.785-12.548 164.083-36.791 41.587-19.657 79.134-46.694 111.087-79.543 0.495 0.734 1.045 1.429 1.54 2.167 36.565 54.72 56.081 119.061 56.081 184.875 0 88.258-35.051 172.924-97.455 235.333-62.413 62.41-147.076 97.458-235.337 97.458zM482.287 726.662c29.79 5.925 60.685 2.874 88.751-8.75 28.062-11.626 52.041-31.328 68.915-56.583 16.875-25.257 25.873-54.958 25.873-85.333 0-40.725-16.162-79.782-44.958-108.582-28.804-28.804-67.887-45.001-108.625-45.001-30.374 0-60.075 8.998-85.333 25.873-25.257 16.879-44.957 40.896-56.582 68.958-11.616 28.058-14.63 58.927-8.708 88.71 5.926 29.791 20.523 57.187 42 78.667 21.481 21.481 48.873 36.115 78.668 42.042z" />
<glyph unicode="&#xe94c;" glyph-name="share" d="M652.706 746.667c14.349 0 28.898-7.241 43.243-21.521l173.85-173.068c16.896-16.819 26.202-39.254 26.202-63.165 0-23.915-9.306-46.349-26.202-63.164l-173.85-173.073c-14.34-14.276-28.89-21.517-43.238-21.517h-0.004c-19.703 0-42.705 14.921-42.705 56.96v58.014c-175.356-6.566-335.284-89.754-441.513-230.519-4.332-5.743-11.051-8.947-17.991-8.947-2.378 0-4.778 0.375-7.122 1.152-9.183 3.051-15.375 11.61-15.375 21.248 0.009 134.148 52.491 260.262 147.776 355.115 89.964 89.555 207.919 141.123 334.225 146.604v58.92c0 42.044 23.002 56.961 42.705 56.962z" />
<glyph unicode="&#xe94d;" glyph-name="phone" d="M875.861 268.365l-107.401 107.179c-38.362 38.276-103.569 22.963-118.912-26.795-11.507-34.453-49.865-53.589-84.386-45.935-76.719 19.14-180.283 118.66-199.462 199.044-11.508 34.451 11.507 72.728 46.029 84.21 49.864 15.311 65.207 80.382 26.849 118.66l-107.401 107.177c-30.686 26.794-76.716 26.794-103.566 0l-72.88-72.727c-72.88-76.555 7.671-279.423 187.954-459.327s383.578-264.115 460.297-187.558l72.879 72.725c26.85 30.622 26.85 76.553 0 103.347z" />
<glyph unicode="&#xe94e;" glyph-name="chat" d="M772.57 789.333h-521.141c-32.724-0.037-64.098-13.275-87.237-36.81s-36.155-55.444-36.192-88.727v-334.764c0.036-33.284 13.052-65.195 36.192-88.73s54.513-36.774 87.237-36.809h41.143v-111.59c-0.001-5.303 1.484-10.5 4.282-14.976s6.793-8.047 11.516-10.295c4.723-2.249 9.979-3.081 15.151-2.402 5.172 0.683 10.046 2.846 14.051 6.246l156.841 133.018h278.157c32.725 0.034 64.098 13.274 87.241 36.809 23.138 23.535 36.151 55.445 36.19 88.73v334.764c-0.038 33.283-13.052 65.193-36.19 88.727-23.142 23.535-54.515 36.773-87.241 36.81zM347.429 440.619c-10.85 0-21.456 3.273-30.477 9.404s-16.052 14.844-20.204 25.041c-4.152 10.193-5.238 21.41-3.121 32.235s7.341 20.766 15.013 28.568c7.672 7.803 17.446 13.117 28.088 15.27s21.671 1.048 31.695-3.175c10.024-4.223 18.591-11.374 24.619-20.549 6.028-9.178 9.245-19.964 9.245-30.997 0-14.797-5.78-28.988-16.067-39.454-10.287-10.462-24.241-16.341-38.79-16.341zM512 440.619c-10.85 0-21.457 3.273-30.477 9.404s-16.051 14.844-20.203 25.041c-4.156 10.193-5.239 21.41-3.123 32.235s7.343 20.766 15.014 28.568c7.671 7.803 17.446 13.117 28.087 15.27s21.67 1.048 31.693-3.175c10.027-4.223 18.594-11.374 24.619-20.549 6.029-9.178 9.246-19.964 9.246-30.997 0-14.797-5.777-28.988-16.068-39.454-10.287-10.462-24.239-16.341-38.788-16.341zM676.57 440.619c-10.846 0-21.453 3.273-30.477 9.404-9.020 6.131-16.051 14.844-20.203 25.041-4.151 10.193-5.239 21.41-3.123 32.235s7.343 20.766 15.014 28.568c7.671 7.803 17.446 13.117 28.087 15.27s21.67 1.048 31.697-3.175c10.022-4.223 18.59-11.374 24.619-20.549 6.029-9.178 9.246-19.964 9.246-30.997 0-14.797-5.781-28.988-16.068-39.454-10.287-10.462-24.243-16.341-38.793-16.341z" />
<glyph unicode="&#xe94f;" glyph-name="info" d="M512 832c-212.236 0-384-171.744-384-384 0-212.233 171.744-384 384-384 212.237 0 384 171.746 384 384 0 212.233-171.746 384-384 384zM551.433 295.569c0-12.134-17.69-24.26-39.424-24.26-22.746 0-38.921 12.126-38.921 24.26v192.58c0 14.153 16.175 23.757 38.921 23.757 21.734 0 39.424-9.604 39.424-23.757v-192.58zM512.009 558.406c-23.249 0-41.446 17.186-41.446 36.395 0 19.207 18.197 35.887 41.446 35.887 22.746 0 40.943-16.68 40.943-35.887 0-19.209-18.197-36.395-40.943-36.395z" />
<glyph unicode="&#xe950;" glyph-name="help" d="M512.020 960c-282.676 0-512.001-229.036-512.001-511.731 0-282.965 229.325-512.269 511.999-512.269 282.83 0 511.961 229.306 511.961 512.269 0.002 282.695-229.131 511.731-511.959 511.731zM548.505 163.378c-11.891-10.583-25.673-15.901-41.284-15.901-16.152 0-30.242 5.224-42.268 15.69-12.046 10.447-18.080 25.075-18.080 43.869 0 16.672 5.84 30.704 17.483 42.076s25.924 17.058 42.866 17.058c16.672 0 30.704-5.686 42.095-17.058 11.372-11.372 17.077-25.402 17.077-42.076-0.021-18.524-5.978-33.078-17.888-43.658zM696.781 530.975c-9.136-16.942-19.987-31.551-32.573-43.869-12.548-12.316-35.117-33.016-67.692-62.12-8.982-8.211-16.209-15.42-21.625-21.625-5.416-6.227-9.463-11.91-12.105-17.077-2.66-5.164-4.702-10.331-6.148-15.496-1.446-5.145-3.623-14.225-6.573-27.195-5.010-27.524-20.757-41.284-47.222-41.284-13.762 0-25.326 4.491-34.752 13.492-9.387 9.001-14.071 22.358-14.071 40.089 0 22.223 3.45 41.479 10.331 57.764 6.843 16.288 15.998 30.569 27.37 42.885 11.391 12.316 26.733 26.927 46.065 43.869 16.942 14.822 29.182 26 36.718 33.538 7.555 7.555 13.897 15.958 19.043 25.21 5.186 9.271 7.73 19.313 7.73 30.164 0 21.182-7.844 39.029-23.61 53.581-15.747 14.552-36.063 21.838-60.946 21.838-29.123 0-50.556-7.344-64.318-22.031s-25.383-36.312-34.925-64.896c-9.020-29.915-26.097-44.87-51.212-44.87-14.822 0-27.33 5.224-37.526 15.671-10.177 10.447-15.266 21.76-15.266 33.941 0 25.134 8.076 50.615 24.21 76.423 16.152 25.808 39.705 47.184 70.677 64.107 30.953 16.942 67.095 25.424 108.36 25.424 38.375 0 72.24-7.092 101.614-21.26 29.374-14.146 52.078-33.403 68.095-57.764 15.998-24.342 24.015-50.807 24.015-79.391 0.038-22.457-4.529-42.176-13.665-59.118z" />
</font>
</defs>
</svg>
